<?xml version="1.0" standalone="no"?>
<!DOCTYPE svg PUBLIC "-//W3C//DTD SVG 1.1//EN" "http://www.w3.org/Graphics/SVG/1.1/DTD/svg11.dtd">
<svg xmlns="http://www.w3.org/2000/svg">
<defs >
<font id="Cinzel" horiz-adv-x="660" ><font-face
    font-family="Cinzel"
    units-per-em="1000"
    panose-1="0 0 0 0 0 0 0 0 0 0"
    ascent="976"
    descent="-372"
    alphabetic="0" />
<glyph unicode=" " horiz-adv-x="250" />
<glyph unicode="!" horiz-adv-x="230" d="M115 -4Q96 -4 83 9T70 41Q70 60 83 73T115 86Q134 86 147 73T160 41Q160 22 147 9T115 -4ZM119 170H109L89 403L77 702H152L140 403L119 170Z" />
<glyph unicode="&quot;" horiz-adv-x="315" d="M66 700L136 714Q136 695 133 664T122 601T98 541T59 500L50 505Q60 549 64 579T68 636T66 700ZM196 700L266 714Q266 695 263 664T252 601T228 541T189 500L180 505Q190 549 194 579T198 636T196 700Z" />
<glyph unicode="#" horiz-adv-x="536" d="M212 700H244L121 0H89L212 700ZM412 700H444L321 0H289L412 700ZM516 497V467H64V497H516ZM472 247V217H20V247H472Z" />
<glyph unicode="$" horiz-adv-x="469" d="M237 714Q261 714 281 712T319 707T350 700T373 692V581H364Q364 629 332 656T247 684Q214 684 187 668T144 626T128 570Q128 548 137 523T169 477L365 295Q394 268 404 237T415 174Q415 90 365 39T233 -14Q185 -14 136
-1T59 41Q55 57 55 81T59 131T70 180H79Q75 128 91 91T142 34T223 16Q260 18 290 35T339 81T357 149Q357 176 348 200T318 243L126 421Q95 450 84 482T72 546Q72 591 94 629T154 691T237 714ZM373 704V683H297V704H373ZM249 788L279 787L211 -102L181 -99L249 788Z"
/>
<glyph unicode="%" horiz-adv-x="684" d="M217 714Q277 714 306 667T322 537Q308 455 262 408T154 361Q94 361 65 408T49 537Q63 620 109 667T217 714ZM213 694Q174 694 145 652T102 537Q89 464 104 423T158 381Q197 381 226 422T269 537Q282 610 267 652T213
694ZM168 -11L143 0L499 676Q474 663 444 649T376 638Q346 641 320 655T267 683T212 694V714Q241 714 262 707T300 688T336 668T377 657Q406 655 432 665T480 688T519 709L541 700L168 -11ZM531 339Q591 339 620 292T636 162Q622 80 576 33T468 -14Q408 -14 379
33T363 162Q377 245 423 292T531 339ZM527 319Q488 319 459 277T416 162Q403 89 418 48T472 6Q511 6 540 47T583 162Q596 235 581 277T527 319Z" />
<glyph unicode="&amp;" horiz-adv-x="646" d="M314 714Q348 714 380 705T439 681T484 643L466 530H456Q456 578 438 612T389 665T314 684Q257 684 220 644T182 543Q182 480 223 426T341 303Q363 284 389 260T450 205T528 139Q560 113 593 84T662 34T736 10V0Q717
0 682 1T603 15T517 63Q479 94 448 120T390 169T340 212T295 253Q237 307 197 350T135 439T113 543Q113 580 127 611T167 665T231 701T314 714ZM590 329Q601 274 596 224T572 132T519 57T439 8T336 -10Q278 -10 230 0T144 29T82 77T43 142T30 224Q30 253 36 277T55
323T83 360T120 391T163 415L177 393Q157 377 143 358T120 317T107 272T103 224Q103 179 118 142T163 77T236 35T336 20Q387 20 426 40T492 94T532 169T543 251T523 329Q513 349 498 362T458 375H443V385H642V375H627Q605 375 596 362T590 329Z" />
<glyph unicode="&apos;" horiz-adv-x="170" d="M51 700L121 714Q121 695 118 664T107 601T83 541T44 500L35 505Q45 549 49 579T53 636T51 700Z" />
<glyph unicode="(" horiz-adv-x="338" d="M309 724Q269 705 235 649T180 511T160 336Q162 237 183 150T237 -1T307 -91L301 -100Q259 -78 222 -36T155 65T108 192T90 334Q89 406 106 471T152 590T221 680T303 732L309 724Z" />
<glyph unicode=")" horiz-adv-x="338" d="M30 724L36 732Q79 717 117 680T186 590T232 472T249 334Q248 261 231 193T184 66T117 -35T38 -100L32 -91Q69 -65 102 -2T156 149T179 336Q180 430 160 511T105 648T30 724Z" />
<glyph unicode="*" horiz-adv-x="386" d="M291 474L256 466L207 555L194 601L200 605L239 579L310 505L291 474ZM97 474L78 504L148 579L187 605L194 601L180 555L132 466L97 474ZM36 658L60 685L152 642L190 613L187 605L140 604L39 623L36 658ZM194 773L227
759L214 658L198 613H190L174 658L161 759L194 773ZM351 659L348 623L248 604L200 605L198 613L235 642L327 686L351 659ZM197 614L200 611L201 606L200 604L195 600Q194 601 193 601T192 601L187 605V607L188 613L191 614H197Z" />
<glyph unicode="+" horiz-adv-x="481" d="M40 332H442V287H40V332ZM218 109V511H263V109H218Z" />
<glyph unicode="," horiz-adv-x="185" d="M55 65Q62 79 77 83T107 82T131 55Q143 27 141 2T125 -44T92 -76T47 -89L45 -81Q75 -71 84 -54T90 -20T78 8Q72 16 65 24T54 42T55 65Z" />
<glyph unicode="-" horiz-adv-x="380" d="M40 314H340L346 292L340 269H40L34 292L40 314Z" />
<glyph unicode="." horiz-adv-x="179" d="M90 -4Q71 -4 58 9T45 41Q45 60 58 73T90 86Q109 86 122 73T135 41Q135 22 122 9T90 -4Z" />
<glyph unicode="/" horiz-adv-x="406" d="M367 714L399 697L38 -14L7 5L367 714Z" />
<glyph unicode="0" horiz-adv-x="596" d="M298 714Q371 714 423 670T504 545T533 350Q533 237 505 156T424 30T298 -14Q225 -14 173 30T92 155T63 350Q63 463 91 544T172 670T298 714ZM298 684Q222 684 178 595T133 350Q133 195 177 106T298 16Q375 16 419 105T463
350Q463 505 419 594T298 684Z" />
<glyph unicode="1" horiz-adv-x="344" d="M284 0V10H263Q241 10 225 25T208 63V714H198Q183 697 167 686T134 668T99 657T60 650V640H98Q121 640 132 628T144 591V64Q144 42 128 26T89 10H68L67 0H284Z" />
<glyph unicode="2" horiz-adv-x="553" d="M92 536L74 649Q93 668 123 682T187 705T253 714Q319 714 368 690T445 622T472 516Q472 465 450 413T391 310T313 213T231 127T161 56H391Q421 56 440 64T475 91T508 141H518L471 0H60V10Q95 42 139 88T229 189T312 300T373
411T397 512Q397 593 359 639T253 684Q183 683 142 645T102 536H92Z" />
<glyph unicode="3" horiz-adv-x="503" d="M217 712Q278 715 322 696T390 642T414 563Q414 527 398 494T357 437T302 403T245 399Q278 399 311 388T372 353T416 296T433 216Q433 169 414 127T360 52T278 -4T176 -34T60 -32L62 -22Q122 -23 175 -6T269 43T334 120T358
219Q358 276 332 312T259 366T153 384L155 394Q200 394 243 414T313 472T338 565Q337 595 324 621T284 665T215 682Q153 682 119 645T88 548H78L61 641Q85 668 121 688T217 712Z" />
<glyph unicode="4" horiz-adv-x="583" d="M351 614L406 714H416V1H351V614ZM406 714L416 677L115 304H459Q487 304 496 309T514 324H524L503 249H40V259L406 714ZM416 64Q416 42 432 26T471 10H482V0H284L285 10H295Q318 10 334 25T351 64H416Z" />
<glyph unicode="5" horiz-adv-x="498" d="M389 624L154 609L108 451Q171 467 228 463T331 433T401 364T423 254Q420 181 389 130T312 45T214 -7T119 -30T50 -31L52 -21Q77 -22 113 -12T188 19T262 72T320 147T348 246Q353 314 316 355T214 407T66 389L57 393L135
664L333 679Q365 679 383 693T412 729H422L389 624Z" />
<glyph unicode="6" horiz-adv-x="560" d="M401 734L405 727Q334 704 284 660T202 555T155 422T140 272Q140 197 157 139T209 48T295 15Q343 15 372 42T416 111T430 202Q429 252 414 289T368 346T295 367Q264 367 235 354T185 315L179 324Q205 355 238 374T306
400T375 400T437 370T483 310T505 216Q509 158 485 106T412 20T295 -15Q228 -16 176 18T94 116T65 272Q66 350 86 427T148 570T252 680T401 734Z" />
<glyph unicode="7" horiz-adv-x="502" d="M35 585H45Q56 615 73 630T120 645H402L314 414Q301 381 285 339T250 251T214 158T179 72T151 0H221Q229 33 242 78T272 172T304 269T334 353T355 410L463 700L63 698L35 585Z" />
<glyph unicode="8" horiz-adv-x="552" d="M96 547Q96 594 117 631T179 691T276 714Q328 715 368 695T432 637T456 545Q456 501 439 465T389 403T308 365L281 380Q319 405 340 433T371 491T381 553Q381 613 353 648T277 684Q226 684 199 647T171 560Q171 527 183
498T218 446T274 403Q302 387 339 370T411 328T469 267T492 175Q492 119 466 77T391 10T276 -14Q227 -14 186 0T117 39T73 101T60 181Q61 208 68 231T89 275T122 313T167 346T224 375L248 356Q202 328 169 284T135 171Q134 100 172 58T277 16Q326 16 356 37T402
91T417 161Q417 200 404 226T368 270T321 301T271 326Q234 346 202 368T146 418T109 478T96 547Z" />
<glyph unicode="9" horiz-adv-x="560" d="M159 -37L156 -30Q227 -10 277 34T358 139T405 271T420 418Q420 499 403 558T352 650T266 682Q219 682 189 656T144 588T131 495Q132 447 147 409T193 350T266 330Q297 331 326 343T376 382L381 373Q356 341 323 322T254
297T184 299T121 330T75 390T56 481Q54 552 81 603T156 682T266 712Q370 714 432 639T495 424Q495 349 475 272T414 127T309 15T159 -37Z" />
<glyph unicode=":" horiz-adv-x="179" d="M90 379Q71 379 58 392T45 424Q45 443 58 456T90 469Q109 469 122 456T135 424Q135 405 122 392T90 379ZM90 -4Q71 -4 58 9T45 41Q45 60 58 73T90 86Q109 86 122 73T135 41Q135 22 122 9T90 -4Z" />
<glyph unicode=";" horiz-adv-x="185" d="M55 65Q62 79 77 83T107 82T131 55Q143 27 141 2T125 -44T92 -76T47 -89L45 -81Q75 -71 84 -54T90 -20T78 8Q72 16 65 24T54 42T55 65ZM90 407Q71 407 58 420T45 452Q45 471 58 484T90 497Q109 497 122 484T135 452Q135
433 122 420T90 407Z" />
<glyph unicode="&lt;" horiz-adv-x="481" d="M442 475L55 288L56 331L442 144V96L40 287V332L442 523V475Z" />
<glyph unicode="=" horiz-adv-x="481" d="M40 409H442V364H40V409ZM40 234H442V189H40V234Z" />
<glyph unicode="&gt;" horiz-adv-x="481" d="M40 475V523L442 332V287L40 96V144L426 331L427 288L40 475Z" />
<glyph unicode="?" horiz-adv-x="413" d="M20 625Q43 667 81 690T168 714Q259 714 311 669T363 544Q363 503 348 472T309 415T260 366T214 319T186 267Q182 251 180 236T180 206T196 175L190 170Q164 194 155 218T146 266Q146 294 160 319T196 368T238 419T273
476T288 544Q288 610 256 647T168 684Q108 684 74 643T40 530H30L20 625ZM180 -4Q161 -4 148 9T135 41Q135 60 148 73T180 86Q199 86 212 73T225 41Q225 22 212 9T180 -4Z" />
<glyph unicode="@" horiz-adv-x="977" d="M617 688Q718 675 788 622T892 487T915 309Q905 223 869 144T772 2T625 -93T432 -123T194 -63L190 -53Q296 -94 390 -97T564 -73T703 11T801 142T850 309Q862 404 837 479T755 600T617 658Q542 668 473 655T343 606T236
517T156 390Q132 336 123 285T117 193T140 128T191 103Q219 103 246 122T299 170T348 232T390 291L517 464Q517 464 529 479T554 512T572 541H579L565 489L421 284Q377 221 340 174T268 100T191 73Q150 73 119 98T72 167T59 270T91 395Q123 471 175 530T295 629T445
684T617 688ZM561 257L554 234H365L373 257H561ZM620 137Q622 112 633 101T660 90Q659 90 662 90T665 90L664 83H506L507 90H514Q526 90 541 102T555 137H620ZM579 541L625 87H558L537 470L579 541Z" />
<glyph unicode="A" horiz-adv-x="712" d="M359 714L655 6H570L339 619L359 714ZM144 73Q137 53 142 39T158 18T182 10H191V0H-10V10Q-10 10 -6 10T-1 10Q22 10 46 24T87 73H144ZM359 714L368 644L117 3H57L313 611Q313 611 318 623T331 654T344 689T350 714H359ZM500
273V243H187V273H500ZM545 73H627Q642 39 667 25T715 10Q715 10 719 10T723 10V0H498V10H507Q526 10 541 26T545 73Z" />
<glyph unicode="B" horiz-adv-x="586" d="M153 700H259Q329 700 377 679T451 621T476 533Q476 491 460 460T419 409T366 381Q419 373 457 346T516 279T537 188Q537 132 510 90T431 24T304 0H193Q193 0 193 9T194 27T194 36H300Q352 36 388 54T443 109T462 195Q462
251 441 286T385 339T312 363T236 370V379Q259 379 287 384T341 404T384 448T401 526Q401 571 385 603T336 651T255 668H163Q163 669 161 676T156 692T153 700ZM202 700V0H137V700H202ZM140 73V0H60L61 10Q63 10 67 10T73 10Q99 10 118 28T137 73H140ZM140 627H137Q137
653 118 671T73 690Q72 690 68 690T61 690L60 700H140V627Z" />
<glyph unicode="C" horiz-adv-x="760" d="M710 292L698 135Q672 92 633 59T540 6T417 -14Q313 -13 232 32T106 158T60 351Q60 460 105 541T231 668T423 714Q497 714 556 695T660 646L680 505H671Q649 593 581 638T423 684Q335 684 271 643T171 527T135 352Q135
252 170 177T269 60T417 16Q488 16 548 42T650 129T702 292H710Z" />
<glyph unicode="D" horiz-adv-x="807" d="M399 700Q506 700 586 657T712 534T758 350Q758 245 713 167T587 44T399 0H185L184 30Q184 30 205 30T259 30T324 30T377 30T399 30Q485 30 548 70T647 182T683 350Q683 446 648 518T548 630T399 670Q399 670 377 670T321
670T254 670T197 670T174 670V700H399ZM202 700V0H137V700H202ZM140 73V0H60V10Q60 10 66 10T73 10Q99 10 117 28T137 73H140ZM140 627H137Q137 653 118 671T73 690Q73 690 67 690T61 690L60 700H140V627Z" />
<glyph unicode="E" horiz-adv-x="577" d="M202 700V0H137V700H202ZM472 31V0H199V31H472ZM429 360V330H199V360H429ZM472 700V669H199V700H472ZM533 162L475 0H309L345 31Q398 31 431 47T486 94T523 162H533ZM429 332V266H419V281Q419 301 405 315T371 330V332H429ZM429
424V358H371V360Q391 361 405 375T419 410V424H429ZM472 672V592H462V610Q462 634 445 651T403 670V672H472ZM472 718V689L350 700Q372 700 396 703T442 710T472 718ZM140 73V0H60V10Q60 10 66 10T73 10Q99 10 117 28T137 73H140ZM140 627H137Q137 653 118 671T73
690Q73 690 67 690T61 690L60 700H140V627Z" />
<glyph unicode="F" horiz-adv-x="541" d="M202 700V0H137V700H202ZM429 360V330H199V360H429ZM472 700V669H199V700H472ZM429 332V266H419V281Q419 301 405 315T371 330V332H429ZM429 424V358H371V360Q391 361 405 375T419 410V424H429ZM472 672V605H462V620Q462
640 448 654T413 669V672H472ZM472 718V689L350 700Q372 700 396 703T442 710T472 718ZM140 73V0H60V10Q60 10 66 10T73 10Q99 10 117 28T137 73H140ZM140 627H137Q137 653 118 671T73 690Q73 690 67 690T61 690L60 700H140V627ZM199 73H202Q203 47 221 29T266
10Q266 10 272 10T279 10V0H199V73Z" />
<glyph unicode="G" horiz-adv-x="798" d="M709 280V115Q686 85 647 55T552 6T419 -14Q313 -13 232 32T106 159T60 350Q60 459 105 541T232 668T419 714Q474 714 518 705T597 681T662 646L682 505H673Q658 563 624 602T537 663T419 684Q335 684 271 642T171 525T135
350Q135 250 171 175T271 59T419 16Q463 16 503 26T580 56T644 103L645 280Q645 325 594 325H578V335H774V325H759Q707 325 709 280Z" />
<glyph unicode="H" horiz-adv-x="813" d="M676 700V0H611V700H676ZM202 700V0H137V700H202ZM620 361V331H192V361H620ZM140 73V0H60V10Q60 10 66 10T73 10Q99 10 117 28T137 73H140ZM140 627H137Q136 653 118 671T73 690Q73 690 67 690T60 690V700H140V627ZM199
73H202Q203 47 221 29T266 10Q266 10 272 10T279 10V0H199V73ZM199 627V700H279V690Q278 690 272 690T266 690Q240 690 222 672T202 627H199ZM614 73V0H534V10Q535 10 541 10T547 10Q573 10 592 28T611 73H614ZM614 627H611Q611 653 592 671T547 690Q547 690 541
690T534 690V700H614V627ZM673 73H676Q677 47 695 29T740 10Q740 10 746 10T753 10V0H673V73ZM673 627V700H753V690Q753 690 747 690T740 690Q714 690 696 672T676 627H673Z" />
<glyph unicode="I" horiz-adv-x="338" d="M202 700V0H137V700H202ZM140 73V0H60V10Q60 10 66 10T73 10Q99 10 117 28T137 73H140ZM140 627H137Q136 653 118 671T73 690Q73 690 67 690T60 690V700H140V627ZM199 73H202Q203 47 221 29T266 10Q266 10 272 10T279
10V0H199V73ZM199 627V700H279V690Q278 690 272 690T266 690Q240 690 222 672T202 627H199Z" />
<glyph unicode="J" horiz-adv-x="324" d="M202 700V0Q202 -42 188 -78T149 -142T91 -184T20 -200V-191Q53 -179 79 -150T121 -80T137 3V700H202ZM140 627H137Q136 653 118 671T73 690Q73 690 67 690T60 690V700H140V627ZM199 627V700H279V690Q279 690 273 690T266
690Q240 690 222 672T202 627H199Z" />
<glyph unicode="K" horiz-adv-x="657" d="M289 385L573 51Q594 31 615 21T668 10V0H625Q615 0 597 1T557 8T514 25T475 57Q475 57 458 78T413 132T355 202T297 273T252 327T234 348L289 385ZM578 693L279 348H234L509 693H578ZM647 700V691H643Q610 691 582 678T533
642L470 644Q483 661 475 676T446 691H436V700H643H647ZM202 700V0H137V700H202ZM140 73V0H60V10Q60 10 66 10T73 10Q99 10 117 28T137 73H140ZM140 627H137Q136 653 118 671T73 690Q73 690 67 690T60 690V700H140V627ZM199 73H202Q203 47 221 29T266 10Q266 10
272 10T279 10V0H199V73ZM199 627V700H279V690Q278 690 272 690T266 690Q240 690 222 672T202 627H199Z" />
<glyph unicode="L" horiz-adv-x="562" d="M202 700V0H137V700H202ZM472 31V0H199V31H472ZM533 162L475 0H309L345 31Q398 31 431 47T486 94T523 162H533ZM140 73V0H60V10Q60 10 66 10T73 10Q99 10 117 28T137 73H140ZM140 627H137Q136 653 118 671T73 690Q73 690
67 690T60 690V700H140V627ZM199 627V700H279V690Q278 690 272 690T266 690Q240 690 222 672T202 627H199Z" />
<glyph unicode="M" horiz-adv-x="931" d="M741 714L749 647L498 88Q498 88 491 71T475 31T464 -14H454L440 49L741 714ZM126 73V0H15V10Q16 10 23 10T31 10Q58 10 79 26T104 73H126ZM155 57Q155 56 155 55T155 52Q155 36 166 23T194 9H209V0H148V57H155ZM179 714H189L209
655L150 0H96L179 714ZM189 714L477 91L454 -14L170 602L189 714ZM750 714L836 0H758L703 606L741 714H750ZM806 73H827Q832 43 853 27T900 10Q900 10 908 10T916 10V0H806V73ZM753 57H760V0H699V9H714Q731 9 742 22T753 52Q753 54 753 55T753 57Z" />
<glyph unicode="N" horiz-adv-x="841" d="M126 715L707 95L716 -14L135 605L126 715ZM128 71V0H45V10Q45 10 54 10T64 10Q89 10 107 28T125 71H128ZM171 71Q171 46 189 28T232 10Q233 10 242 10T251 10V0H168V71H171ZM126 715L170 659L171 0H125V590Q125 641 121
678T116 715H126ZM716 700V114Q716 82 718 53T722 5T725 -14H716L671 39V700H716ZM796 700V690Q796 690 787 690T778 690Q753 690 735 673T716 629H713V700H796ZM590 700H673V629H671Q670 655 653 672T609 690Q609 690 600 690T590 690V700Z" />
<glyph unicode="O" horiz-adv-x="838" d="M429 714Q536 714 617 669T743 541T789 350Q789 241 744 159T617 32T429 -14Q323 -14 242 31T116 159T70 350Q70 459 115 541T242 668T429 714ZM429 16Q514 16 577 58T676 175T712 350Q712 450 677 525T578 642T429 684Q345
684 282 642T183 525T147 350Q147 250 182 175T281 58T429 16Z" />
<glyph unicode="P" horiz-adv-x="577" d="M189 700H321Q385 700 431 677T502 611T527 507Q527 461 509 425T461 363T393 326T315 316T236 339V349Q236 349 253 347T296 345T352 356T407 390T446 457Q449 468 451 484T452 517Q451 586 416 628T317 670H199Q199
670 197 677T192 692T189 700ZM202 700V0H137V700H202ZM140 73V0H60V10Q60 10 66 10T73 10Q99 10 117 28T137 73H140ZM140 627H137Q137 653 118 671T73 690Q73 690 67 690T61 690L60 700H140V627ZM199 73H202Q203 47 221 29T266 10Q266 10 272 10T279 10V0H199V73Z"
/>
<glyph unicode="Q" horiz-adv-x="837" d="M408 -14L418 12Q436 12 465 5T534 -14T620 -45T722 -85T836 -133Q892 -157 957 -168T1090 -176T1217 -150T1324 -84L1328 -89Q1321 -108 1295 -135T1224 -188T1121 -228T988 -237T828 -194Q782 -174 730 -147T623 -93T514
-45T408 -14ZM419 714Q525 714 605 669T731 541T777 350Q777 241 732 159T605 32T419 -14Q313 -14 232 31T106 159T60 350Q60 459 105 541T232 668T419 714ZM419 16Q504 16 567 58T666 175T702 350Q702 450 667 525T568 642T419 684Q334 684 270 642T171 525T135
350Q135 250 171 175T271 58T419 16Z" />
<glyph unicode="R" horiz-adv-x="677" d="M189 700H330Q375 700 411 687T473 650T511 591T525 512Q525 464 503 420T442 349T355 321Q372 314 392 293T427 251Q427 251 440 232T474 184T516 129T552 86Q572 64 592 47T635 20T688 10V0H633Q587 0 554 14T497 48T458
88Q455 92 442 111T410 156T373 209T342 253T327 275Q308 300 285 321T235 342V352Q235 352 250 352T288 352Q314 353 345 360T403 389T444 456Q447 467 449 483T450 516Q449 584 416 624T326 668Q298 670 269 670T219 669T199 669Q199 670 197 677T192 692T189
700ZM202 700V0H137V700H202ZM140 73V0H60V10Q60 10 66 10T73 10Q99 10 117 28T137 73H140ZM140 627H137Q136 653 118 671T73 690Q73 690 67 690T60 690V700H140V627ZM199 73H202Q202 47 221 29T266 10Q266 10 272 10T278 10V0H199V73Z" />
<glyph unicode="S" horiz-adv-x="475" d="M251 714Q267 714 285 712T321 707T353 700T376 692V581H367Q367 629 334 656T254 684Q199 684 165 650T131 569Q131 550 139 525T171 477L368 295Q398 267 408 235T418 173Q418 90 368 38T231 -14Q207 -14 175 -9T112
8T61 41Q58 57 58 81T62 131T73 180H82Q77 129 95 91T147 34T226 16Q281 19 320 54T360 150Q360 179 350 202T321 243L129 421Q99 449 87 482T75 545Q75 587 95 626T154 689T251 714ZM376 704V683H300V704H376Z" />
<glyph unicode="T" horiz-adv-x="618" d="M342 697V0H277V697H342ZM599 701V671H20V701H599ZM599 674V593L589 594V611Q589 636 572 653T530 671V674H599ZM599 719V690L477 701Q499 701 523 704T569 711T599 719ZM280 73V0H200V10Q200 10 206 10T213 10Q239 10
257 28T277 73H280ZM339 73H342Q343 47 361 29T406 10Q406 10 412 10T419 10V0H339V73ZM89 674V671Q64 670 47 653T30 611V594L20 593V674H89ZM20 719Q30 715 50 711T96 704T142 701L20 690V719Z" />
<glyph unicode="U" horiz-adv-x="785" d="M184 700V260Q184 188 210 133T285 48T396 17Q463 17 513 46T591 126T619 247V700H666V247Q666 169 633 111T538 19T396 -14Q313 -14 251 18T154 109T119 246V700H184ZM122 700V640H119Q119 662 104 676T66 690Q66 690
58 690T50 690V700H122ZM253 700V690Q253 690 245 690T237 690Q215 690 200 676T184 640H182V700H253ZM622 700V640H619Q619 662 604 676T566 690Q566 690 558 690T550 690V700H622ZM735 700V690Q735 690 727 690T719 690Q697 690 682 676T666 640H664V700H735Z"
/>
<glyph unicode="V" horiz-adv-x="740" d="M367 -14L57 694H142L387 81L367 -14ZM367 -14L358 56L624 697H684L413 89Q413 89 408 77T395 46T382 11T376 -14H367ZM596 628Q607 658 592 674T558 690H549V700H750V690Q750 690 746 690T741 690Q719 690 694 676T653
627L596 628ZM169 628L86 627Q71 661 46 675T-2 690Q-2 690 -6 690T-10 690V700H215V690H206Q187 690 173 674T169 628Z" />
<glyph unicode="W" horiz-adv-x="982" d="M63 694H144L330 97L313 -12L63 694ZM511 716L519 635L343 99Q343 99 338 82T328 39T322 -12H313L295 77L502 716H511ZM511 715L721 126L699 -12L477 607L511 715ZM917 694L730 99Q730 99 725 81T715 38T708 -12H699L687
87L861 694H917ZM842 628Q850 658 837 674T804 690H795V700H992V690Q992 690 988 690T984 690Q961 690 934 676T896 628H842ZM165 628H86Q74 661 48 675T-2 690Q-2 690 -6 690T-10 690V700H212V690H203Q184 690 170 674T165 628Z" />
<glyph unicode="X" horiz-adv-x="662" d="M156 700L601 1H521L78 700H156ZM169 72Q160 58 164 44T179 20T204 10Q204 10 210 10T217 10V0H-10V10H4Q36 10 63 28T106 69L169 72ZM309 372L332 329L124 1H60L309 372ZM476 72L558 68Q574 45 601 28T659 10H673V0H429V10Q429
10 435 10T441 10Q462 10 475 30T476 72ZM249 700V690Q249 690 243 690T237 690Q224 690 213 681T198 657T202 628L122 631Q106 654 80 672T21 690H7V700H249ZM586 700L351 354L317 378L521 700H586ZM654 700V690H640Q609 690 583 672T539 631L475 628Q484 642
481 656T466 680T441 690Q441 690 435 690T429 690V700H654Z" />
<glyph unicode="Y" horiz-adv-x="661" d="M150 699L346 334L303 299L64 699H150ZM360 322V0H295V322H360ZM538 699H599L353 301L317 312L538 699ZM497 628Q506 642 502 656T487 680T462 690Q462 690 456 690T450 690V700H672V690H658Q627 690 600 672T557 631L497
628ZM188 628L104 631Q90 654 63 672T4 690H-10V700H236V690Q236 690 230 690T223 690Q201 690 190 670T188 628ZM297 73V0H218V10Q218 10 224 10T231 10Q257 10 275 28T295 73H297ZM357 73H360Q360 47 379 29T424 10Q424 10 430 10T436 10V0H357V73Z" />
<glyph unicode="Z" horiz-adv-x="651" d="M580 714Q580 714 580 710T580 705L134 0H60V9L480 671H74V701H474Q494 701 516 703T556 708T580 714ZM587 30L581 0H124V30H587ZM617 154L584 0H452L459 25L470 30Q526 30 559 66T607 154H617ZM143 671Q118 670 101 653T84
611V593H74V674H143V671ZM74 719Q84 715 104 711T150 704T196 701L74 690V719Z" />
<glyph unicode="[" horiz-adv-x="332" d="M120 722H289V712L185 692V-60L292 -80V-90H120V722Z" />
<glyph unicode="\" horiz-adv-x="406" d="M38 714L399 5L368 -14L7 697L38 714Z" />
<glyph unicode="]" horiz-adv-x="332" d="M212 722V-90H40V-80L147 -60V692L43 712V722H212Z" />
<glyph unicode="^" horiz-adv-x="523" d="M35 182H98L262 336L425 182H488L292 371H232L35 182Z" />
<glyph unicode="_" horiz-adv-x="500" d="M0 -60H500V-90H0V-60Z" />
<glyph unicode="`" horiz-adv-x="439" d="M240 753L233 746Q206 759 179 772T126 801T72 831Q80 847 90 860T113 884Q134 864 155 843T197 799T240 753Z" />
<glyph unicode="a" horiz-adv-x="663" d="M336 614L611 6H532L319 525L336 614ZM143 73Q132 43 146 27T178 10H186V0H-5V10Q-5 10 -1 10T3 10Q24 10 46 24T84 73H143ZM336 614L343 545L114 3H51L288 511Q288 511 293 523T306 552T320 587T327 614H336ZM454 233V203H189V233H454ZM505
73H581Q596 39 618 25T660 10Q660 10 664 10T668 10V0H463V10H471Q488 10 502 26T505 73Z" />
<glyph unicode="b" horiz-adv-x="570" d="M140 600H259Q286 600 321 595T390 575T445 530T467 450Q467 420 451 394T410 351T357 326Q406 321 443 299T503 242T525 168Q525 119 505 87T451 35T379 8T303 0H181Q181 0 181 7T182 22T182 30H302Q345 30 379 44T434
90T454 168Q454 216 433 245T378 290T303 311T221 317V327Q248 327 279 331T336 347T380 384T397 450Q397 513 360 541T258 570H149Q149 571 147 578T142 593T140 600ZM190 600V0H127V600H190ZM130 64V0H55V10Q55 10 61 10T67 10Q93 10 109 26T127 64H130ZM130
536H127Q126 560 110 575T67 590Q67 590 61 590T55 590V600H130V536Z" />
<glyph unicode="c" horiz-adv-x="705" d="M666 252L655 115Q629 75 587 46T492 2T380 -14Q279 -13 205 25T90 133T50 300Q50 398 90 468T204 576T380 614Q442 614 505 598T614 553L636 412H627Q605 504 539 544T379 584Q300 584 243 550T154 452T122 300Q122 214
153 151T243 53T380 17Q455 17 515 41T614 118T657 252H666Z" />
<glyph unicode="d" horiz-adv-x="760" d="M389 600Q488 600 560 564T671 461T710 300Q710 207 671 140T560 37T389 0H176L174 30Q244 30 291 30T364 30T389 30Q505 30 571 102T638 300Q638 425 572 497T389 570Q389 570 363 570T287 570T164 570V600H389ZM190
600V0H125V600H190ZM127 65V0H55V10Q55 10 61 10T68 10Q92 10 108 26T125 65H127ZM127 535H125Q124 559 108 574T67 590Q67 590 61 590T55 590V600H127V535Z" />
<glyph unicode="e" horiz-adv-x="546" d="M191 600V0H127V600H191ZM460 31L458 0H189V31H460ZM413 315V285H189V315H413ZM459 600V569H189V600H459ZM516 143L461 0H309L343 31Q393 31 423 45T473 85T506 143H516ZM413 287V230H402V243Q402 260 392 272T361 285V287H413ZM413
370V313H361V315Q382 315 392 327T402 357V370H413ZM459 572V503H448V518Q448 539 435 554T398 569V572H459ZM459 616V590L345 600Q376 600 411 605T459 616ZM129 64L142 0H55V10Q55 10 62 10T69 10Q94 10 110 26T127 64H129ZM129 537H127Q126 560 110 575T69 590Q69
590 62 590T55 590V600H142L129 537Z" />
<glyph unicode="f" horiz-adv-x="523" d="M191 600V0H128V600H191ZM416 315V285H189V315H416ZM463 600V569H189V600H463ZM416 287V230H405V243Q405 260 396 272T364 285V287H416ZM416 370V313H364V315Q386 315 395 327T405 357V370H416ZM463 572V503H452V518Q452
539 439 554T402 569V572H463ZM463 616V590L348 600Q369 600 392 602T434 609T463 616ZM130 64L143 0H55V10Q55 10 62 10T69 10Q94 10 110 26T128 64H130ZM130 537H128Q127 560 111 575T69 590Q69 590 62 590T55 590V600H143L130 537ZM189 64H191Q192 42 208 26T250
10Q250 10 257 10T264 10V0H176L189 64Z" />
<glyph unicode="g" horiz-adv-x="742" d="M378 614Q424 614 464 608T541 588T611 553L633 412H624Q610 471 579 509T497 565T377 584Q301 584 244 550T154 452T122 300Q122 213 154 149T244 51T378 16Q420 16 458 25T531 53T598 103L599 236Q600 255 588 265T553
275H539V285H722V275H708Q663 275 663 235V115Q640 86 600 56T505 6T378 -14Q279 -13 206 25T91 133T50 300Q50 398 91 468T206 576T378 614Z" />
<glyph unicode="h" horiz-adv-x="746" d="M622 600V0H558V600H622ZM189 600V0H125V600H189ZM568 311V281H178V311H568ZM128 64V0H55V10Q55 10 61 10T67 10Q91 10 107 26T125 64H128ZM186 64H189Q189 42 206 26T247 10Q247 10 253 10T259 10V0H186V64ZM186 536V600H259V590Q259
590 253 590T247 590Q223 590 206 575T189 536H186ZM128 536H125Q124 559 108 574T67 590Q67 590 61 590T55 590V600H128V536ZM561 64V0H488V10Q488 10 494 10T500 10Q524 10 540 26T558 64H561ZM619 64H622Q623 42 639 26T680 10Q680 10 686 10T692 10V0H619V64ZM619
536V600H692V590Q692 590 686 590T680 590Q656 590 640 575T622 536H619ZM561 536H558Q557 559 541 574T500 590Q500 590 494 590T488 590V600H561V536Z" />
<glyph unicode="i" horiz-adv-x="336" d="M200 600V0H137V600H200ZM140 64V0H55V10Q55 10 62 10T69 10Q97 10 116 26T137 64H140ZM197 64H200Q201 42 220 26T268 10Q268 10 274 10T281 10L282 0H197V64ZM197 536V600H282L281 590Q281 590 275 590T268 590Q240
590 221 575T200 536H197ZM140 536H137Q136 559 117 574T69 590Q68 590 62 590T55 590V600H140V536Z" />
<glyph unicode="j" horiz-adv-x="309" d="M196 600V0Q196 -36 182 -68T142 -125T83 -164T13 -178V-168Q45 -158 72 -132T115 -72T132 0V600H196ZM136 600V536H133Q132 559 113 574T67 590H55L54 600H136ZM274 600V590H261Q235 590 216 575T196 536H193V600H274Z" />
<glyph unicode="k" horiz-adv-x="624" d="M281 335L542 51Q559 31 578 21T629 10V0H592Q580 0 563 1T525 8T484 25T445 57Q445 57 430 74T389 119T336 177T282 235T241 280T225 298L281 335ZM548 593L272 298H225L476 593H548ZM613 600V590H609Q578 590 552 580T508
550L440 551Q451 565 444 577T418 590H409V600H609H613ZM190 600V0H126V600H190ZM128 64V0H55V10Q55 10 61 10T67 10Q91 10 108 26T126 64H128ZM187 64H190Q190 42 207 26T249 10Q249 10 254 10T260 10V0H187V64ZM187 536V600H260V590Q260 590 255 590T248 590Q224
590 207 575T190 536H187ZM128 536H126Q125 559 108 574T67 590Q67 590 61 590T55 590V600H128V536Z" />
<glyph unicode="l" horiz-adv-x="536" d="M191 600V0H127V600H191ZM460 31L458 0H189V31H460ZM516 143L461 0H309L343 31Q393 31 423 45T473 85T506 143H516ZM129 64L142 0H55V10Q55 10 62 10T69 10Q94 10 110 26T127 64H129ZM188 536V600H262V590Q262 590 256
590T250 590Q226 590 209 575T191 536H188ZM129 536H127Q126 559 109 574T67 590Q67 590 61 590T55 590V600H129V536Z" />
<glyph unicode="m" horiz-adv-x="878" d="M698 614L707 549L473 88Q473 88 466 71T450 31T438 -14H428L414 49L698 614ZM112 67V0H8V10Q8 10 15 10T23 10Q49 10 68 25T91 67H112ZM142 52Q141 37 149 24T179 9H193V0H136V52H142ZM169 614H179L199 555L137 0H82L169
614ZM179 614L451 91L428 -14L160 504L179 614ZM707 614L797 0H721L656 503L698 614H707ZM767 67H787Q791 40 811 25T856 10Q856 10 863 10T871 10V0H767V67ZM714 52H721V0H663V9H678Q701 10 708 24T714 52Z" />
<glyph unicode="n" horiz-adv-x="779" d="M108 615L662 93L672 -14L118 511L108 615ZM110 62V0H35V10Q35 10 43 10T52 10Q75 10 91 25T107 62H110ZM152 62Q152 40 168 25T207 10Q207 10 215 10T224 10V0H149V62H152ZM108 615L151 559L152 0H107V490Q107 541 103
578T98 615H108ZM672 600V114Q672 82 674 53T678 5T681 -14H672L628 39V600H672ZM669 538V600H744V590Q744 590 736 590T727 590Q705 590 689 575T672 538H669ZM628 538Q627 560 611 575T572 590Q572 590 564 590T555 590V600H630V538H628Z" />
<glyph unicode="o" horiz-adv-x="774" d="M387 614Q457 614 518 592T626 527T699 428T725 300Q725 230 699 173T627 73T519 9T387 -14Q317 -14 256 8T149 73T76 172T50 300Q50 370 76 427T148 527T256 591T387 614ZM387 16Q461 16 521 52T616 152T651 300Q651
385 616 448T521 548T387 584Q314 584 254 548T159 449T124 300Q124 216 159 152T254 52T387 16Z" />
<glyph unicode="p" horiz-adv-x="553" d="M178 600H289Q359 600 410 580T489 521T517 429Q517 372 492 332T424 270T331 248T229 274V284Q229 284 245 281T288 278T343 287T397 319T438 385Q442 396 443 411T445 439Q445 500 403 535T287 570H189Q189 570 187
577T181 592T178 600ZM191 600V0H127V600H191ZM129 64L142 0H55V10Q55 10 62 10T69 10Q93 10 109 26T127 64H129ZM129 537H127Q126 560 110 575T69 590Q69 590 62 590T55 590V600H142L129 537ZM188 64H190Q191 42 207 26T248 10Q249 10 255 10T262 10V0H175L188
64Z" />
<glyph unicode="q" horiz-adv-x="777" d="M381 614Q450 614 509 592T614 527T685 428T711 300Q711 230 686 173T615 73T510 9T381 -14Q312 -14 252 8T147 73T76 172T50 300Q50 370 75 427T146 527T252 591T381 614ZM381 16Q453 16 511 52T603 152T638 300Q638
385 604 448T511 548T381 584Q309 584 251 548T159 449T124 300Q124 216 158 152T251 52T381 16ZM379 -13L389 9Q404 9 430 3T490 -14T567 -40T657 -74T758 -114Q808 -134 866 -144T983 -152T1096 -130T1191 -74L1194 -78Q1188 -94 1165 -118T1102 -166T1011 -202T893
-211T752 -174Q712 -157 666 -133T570 -85T473 -41T379 -13Z" />
<glyph unicode="r" horiz-adv-x="627" d="M177 600H306Q353 600 390 589T454 557T495 506T509 438Q509 396 489 360T434 301T353 273Q370 266 392 242T431 195Q431 195 444 178T477 135T518 86Q539 63 556 46T594 20T642 10V0H611Q556 0 521 14T463 48T425 88Q421
93 407 113T375 158T344 201T327 225Q307 251 281 271T226 292V302Q226 302 242 302T283 302Q311 303 339 306T391 328T430 388Q434 399 436 414T437 445Q436 473 427 495T400 533T358 558T304 568Q257 570 222 569T187 569Q187 570 185 577T180 592T177 600ZM189
600V0H125V600H189ZM128 64L140 0H55V10Q55 10 62 10T69 10Q93 10 109 26T126 64H128ZM128 537H126Q125 560 109 575T69 590Q69 590 62 590T55 590V600H140L128 537ZM186 64H189Q190 42 206 26T246 10Q246 10 252 10T259 10L260 0H174L186 64Z" />
<glyph unicode="s" horiz-adv-x="462" d="M234 614Q262 614 283 612T319 608T346 602T367 595L368 496H356Q356 537 328 560T241 584Q191 584 156 557T121 489Q121 476 124 463T136 436T160 410L362 254Q385 235 396 206T408 147Q409 103 385 66T321 8T231 -14Q202
-14 169 -9T106 6T58 33Q55 47 55 68T58 114T68 157H80Q76 112 93 80T143 32T220 16Q282 18 317 47T353 126Q353 150 345 169T317 206L117 360Q89 384 79 413T69 468Q69 509 91 542T150 594T234 614ZM366 605L367 587H296V605H366Z" />
<glyph unicode="t" horiz-adv-x="578" d="M322 597V0H257V597H322ZM564 601V571H15V601H564ZM564 573V504H553V520Q553 541 540 555T503 571V573H564ZM564 617V591L452 601Q472 601 494 603T536 610T564 617ZM259 64V0H186V10Q187 10 192 10T198 10Q222 10 239
26T257 64H259ZM319 64H322Q323 42 340 26T381 10Q381 10 386 10T392 10V0H319V64ZM76 573V571Q53 570 40 556T26 520V504H15V573H76ZM15 617Q24 614 42 610T84 604T127 601L15 591V617Z" />
<glyph unicode="u" horiz-adv-x="700" d="M167 600V222Q167 125 216 69T352 13Q447 13 501 66T556 211V600H602V211Q602 107 536 47T353 -14Q238 -14 171 46T103 210V600H167ZM105 600V547H103Q102 565 89 577T55 590Q55 590 48 590T40 590V600H105ZM230 600V590Q230
590 223 590T215 590Q196 590 182 578T167 547H165V600H230ZM558 600V547H556Q556 565 542 577T508 590Q508 590 501 590T493 590V600H558ZM665 600V590Q665 590 658 590T650 590Q631 590 617 578T602 547H600V600H665Z" />
<glyph unicode="v" horiz-adv-x="663" d="M327 -14L52 594H131L344 75L327 -14ZM327 -14L320 55L549 597H612L375 89Q375 89 370 77T357 48T343 13T336 -14H327ZM520 527Q531 557 517 573T485 590H478V600H668V590Q668 590 664 590T660 590Q639 590 617 576T579
527H520ZM158 527H82Q67 561 45 575T3 590Q3 590 -1 590T-5 590V600H200V590H192Q175 590 162 574T158 527Z" />
<glyph unicode="w" horiz-adv-x="899" d="M57 594H137L299 101L290 -12L57 594ZM468 616L476 535L321 99Q321 99 316 82T306 39T299 -12H290L271 77L458 616H468ZM468 615L660 126L637 -12L434 507L468 615ZM836 594L670 99Q670 99 665 81T654 38T647 -12H637L625
87L779 594H836ZM759 530Q770 562 758 576T729 590H721V600H904V590Q904 590 901 590T897 590Q866 590 845 573T815 530H759ZM158 531L82 530Q72 556 52 573T0 590Q0 590 -4 590T-8 590V600H198V590H190Q174 590 161 577T158 531Z" />
<glyph unicode="x" horiz-adv-x="626" d="M152 599L569 1H488L73 599H152ZM162 64Q149 45 162 28T195 10Q195 10 201 10T207 10V0H-11V10H2Q32 10 57 25T98 61L162 64ZM296 313L316 272L115 1H52L296 313ZM445 63L527 60Q542 41 568 26T624 10H637V0H400V10Q400
10 406 10T412 10Q432 10 444 27T445 63ZM240 600V590Q240 590 234 590T228 590Q209 590 196 573T195 537L115 540Q100 560 74 575T18 590H5V600H240ZM553 599L340 303L315 345L485 599H553ZM620 600V590H606Q576 590 551 575T510 539L443 536Q455 555 443 572T410
590Q410 590 404 590T398 590V600H620Z" />
<glyph unicode="y" horiz-adv-x="640" d="M149 599L334 270L293 235L62 599H149ZM349 258V0H284V258H349ZM517 599H580L342 237L305 248L517 599ZM479 536Q490 556 480 573T448 590Q448 590 442 590T436 590V600H645V590H633Q605 590 581 575T542 539L479 536ZM184
537L99 540Q83 563 60 576T7 590H-5V600H227V590Q227 590 221 590T215 590Q193 590 184 573T184 537ZM287 64V0H214V10Q215 10 220 10T226 10Q250 10 266 26T284 64H287ZM346 64H349Q350 42 366 26T407 10Q407 10 413 10T419 10V0H346V64Z" />
<glyph unicode="z" horiz-adv-x="608" d="M520 614Q520 614 520 610T520 605L120 0H50V9L423 571H65V601H407Q428 601 452 603T495 608T520 614ZM529 30L522 0H115V30H529ZM583 143L529 0H379L413 30Q462 31 491 45T540 84T573 143H583ZM65 573H126V571Q104 570
90 556T76 519V504H65V573ZM65 617Q74 614 93 611T134 605T177 601L65 591V617Z" />
<glyph unicode="{" horiz-adv-x="337" d="M138 340Q143 353 139 382T130 447T124 517Q125 578 142 626T198 704T296 733L298 725Q252 713 229 685T198 615T189 517Q189 484 190 451T190 391T177 344T141 316Q167 310 177 291T190 242T191 181T189 116Q190 75 194
41T209 -20T242 -65T298 -92L296 -100Q236 -100 198 -71T143 7T124 116Q124 149 129 185T137 250T135 292Q130 305 114 309T85 314V324Q99 325 115 327T138 340Z" />
<glyph unicode="|" horiz-adv-x="245" d="M100 700H145V-180H100V700Z" />
<glyph unicode="}" horiz-adv-x="337" d="M42 733Q103 733 140 704T195 627T213 517Q214 484 208 448T199 382T200 340Q205 329 222 327T253 324V314Q240 313 224 309T203 292Q198 279 201 250T209 185T213 116Q213 56 196 7T141 -71T42 -100L40 -92Q75 -83 96
-65T128 -21T144 40T148 116Q148 148 147 180T147 242T161 290T197 316Q172 324 161 343T148 390T146 451T148 517Q148 572 140 614T110 685T40 725L42 733Z" />
<glyph unicode="~" horiz-adv-x="493" d="M85 219H40Q32 266 44 296T83 341T140 358Q166 358 194 344T249 310T302 275T346 259Q367 258 385 269T410 301T408 353H453Q465 305 451 274T408 229T346 214Q320 214 293 228T240 262T188 297T140 313Q112 314 94 292T85 219Z" />
<glyph unicode="&#xa0;" horiz-adv-x="250" />
<glyph unicode="&#xa1;" horiz-adv-x="230" d="M115 706Q134 706 147 693T160 661Q160 642 147 629T115 616Q96 616 83 629T70 661Q70 679 83 692T115 706ZM111 529H121L141 299L153 0H78L90 299L111 529Z" />
<glyph unicode="&#xa2;" horiz-adv-x="602" d="M563 304L555 186Q523 134 463 105T329 75Q245 76 183 108T85 202T50 346Q50 430 85 491T182 584T329 617Q381 617 432 603T521 565L539 443H532Q519 496 491 527T421 573T329 587Q232 587 179 524T125 346Q125 234
178 171T329 105Q391 105 440 125T520 190T555 304H563ZM343 701L373 700L315 -9L286 -6L343 701Z" />
<glyph unicode="&#xa3;" horiz-adv-x="577" d="M548 159L502 24Q470 9 436 1T369 -9T310 -8Q266 -2 233 8T170 24T109 24Q105 23 98 20T82 11T68 0H58V10Q86 32 110 81T149 203T159 370Q156 441 164 501T196 607T259 680T360 714Q409 719 445 701T502 657L475
566H465Q471 612 458 638T418 676T360 684Q300 678 271 639T234 532T229 377Q232 296 224 242T201 154T165 96T125 54Q163 67 209 60T312 48Q352 45 395 52T476 85T538 159H548ZM62 365H413L400 329H50L62 365Z" />
<glyph unicode="&#xa4;" horiz-adv-x="541" d="M119 503Q161 545 215 558T324 559T420 503Q462 461 475 407T476 298T420 201Q379 160 325 146T216 146T119 201Q78 243 64 297T64 406T119 503ZM140 481Q104 446 92 399T92 306T140 223Q176 187 222 175T316 175T399
223Q435 259 446 305T447 399T399 481Q363 517 316 529T223 529T140 481ZM50 553L71 574L143 503L121 481L50 553ZM399 204L420 225L492 154L470 132L399 204ZM71 132L50 154L121 225L143 204L71 132ZM420 481L399 503L470 574L492 553L420 481Z" />
<glyph unicode="&#xa5;" horiz-adv-x="661" d="M150 699L346 334L303 299L64 699H150ZM360 322V0H295V322H360ZM538 699H599L353 301L317 312L538 699ZM497 628Q506 642 502 656T487 680T462 690Q462 690 456 690T450 690V700H672V690H658Q627 690 600 672T557
631L497 628ZM188 628L104 631Q90 654 63 672T4 690H-10V700H236V690Q236 690 230 690T223 690Q201 690 190 670T188 628ZM297 73V0H218V10Q218 10 224 10T231 10Q257 10 275 28T295 73H297ZM357 73H360Q360 47 379 29T424 10Q424 10 430 10T436 10V0H357V73ZM104
295H550V265H104V295ZM104 415H282V385H104V415ZM391 415H550V385H391V415Z" />
<glyph unicode="&#xa6;" horiz-adv-x="245" d="M100 170H145V-180H100V170ZM100 700H145V350H100V700Z" />
<glyph unicode="&#xa7;" horiz-adv-x="511" d="M278 708Q324 716 355 707T402 679T419 643T405 612Q396 605 384 610T359 626T329 649T295 668T256 675T212 656Q192 642 183 625T176 585T197 532T249 461T336 367Q403 300 428 230T447 96T410 -22T336 -109T243
-151Q197 -158 166 -149T117 -123T100 -86T115 -54Q125 -47 136 -51T161 -67T190 -90T224 -109T263 -116T307 -98Q342 -74 342 -36T303 59T179 197Q121 253 94 311T66 424T82 527T131 614T200 677T278 708ZM139 583Q123 553 112 517T105 440T136 351T224 248Q288
190 323 143T369 57T371 -15Q390 15 400 50T405 127T372 215T289 317Q241 363 210 399T163 467T141 526T139 583Z" />
<glyph unicode="&#xa8;" horiz-adv-x="600" d="M186 700Q170 700 159 711T147 739Q147 756 158 767T186 778Q203 778 214 767T225 739Q225 723 214 712T186 700ZM375 700Q359 700 348 711T336 739Q336 756 347 767T375 778Q391 778 402 767T414 739Q414 723 403
712T375 700Z" />
<glyph unicode="&#xa9;" horiz-adv-x="848" d="M424 714Q499 714 565 686T681 607T759 491T788 350Q788 275 760 209T681 93T565 15T424 -14Q349 -14 283 14T167 93T89 209T60 350Q60 425 88 491T167 607T283 685T424 714ZM424 677Q356 677 297 652T193 581T123
477T97 350Q97 282 122 223T193 119T297 49T424 23Q492 23 551 48T655 119T725 223T751 350Q751 418 726 477T655 581T551 651T424 677ZM622 316L615 218Q590 176 540 152T430 127Q365 128 313 157T231 236T201 350Q201 414 231 464T313 544T430 573Q473 573 515
562T588 530L602 430H596Q583 484 539 515T430 547Q384 547 347 522T289 452T267 350Q267 295 288 251T347 180T430 153Q506 153 558 190T616 316H622Z" />
<glyph unicode="&#xaa;" horiz-adv-x="368" d="M186 714L338 381H283L176 659L186 714ZM91 420Q84 402 92 393T110 383H114V378H0V383Q0 383 2 383T4 383Q16 383 28 392T49 420H91ZM186 714L191 653L74 379H30L160 655Q160 655 165 666T175 692T181 714H186ZM250
510V486H105V510H250ZM269 420H321Q330 401 341 392T364 383Q364 383 366 383T368 383V378H245V383H250Q260 383 267 392T269 420Z" />
<glyph unicode="&#xab;" horiz-adv-x="453" d="M40 292L215 90L224 95L105 292L223 485L215 490L40 292ZM210 292L385 90L394 95L275 292L393 485L385 490L210 292Z" />
<glyph unicode="&#xac;" horiz-adv-x="601" d="M40 397H562V352H40V397ZM517 397H562V195H517V397Z" />
<glyph unicode="&#xad;" horiz-adv-x="380" d="M40 314H340L346 292L340 269H40L34 292L40 314Z" />
<glyph unicode="&#xae;" horiz-adv-x="245" d="M123 701Q154 701 179 686T220 645T236 588Q236 557 221 532T180 491T123 475Q92 475 67 490T26 531T10 588Q10 619 25 644T66 685T123 701ZM84 532H68V534Q68 534 69 534T70 534Q81 534 81 545L84 532ZM105 545Q105
534 115 534Q115 534 116 534T118 534V532H102L105 545ZM105 652V532H81V652H105ZM84 652L81 639Q81 650 70 650Q70 650 69 650T68 650V652H84ZM126 652Q144 652 156 644T168 619Q168 606 160 597T139 586Q146 585 154 573T167 553Q169 550 174 544T188 534V532H176Q151
532 141 547T123 577Q120 582 118 586T111 590V592Q111 592 114 592T122 592Q123 592 129 594T140 609Q142 615 141 621Q141 643 117 642L104 643Q104 643 103 647T102 652H126ZM123 681Q85 681 58 654T30 588Q30 550 57 523T123 495Q161 495 188 522T216 588Q216
626 189 653T123 681Z" />
<glyph unicode="&#xaf;" horiz-adv-x="600" d="M170 738H420V703H170V738Z" />
<glyph unicode="&#xb0;" horiz-adv-x="257" d="M129 664Q170 664 198 636T227 566Q227 525 199 496T129 467Q88 467 59 496T30 566Q30 607 59 635T129 664ZM129 625Q104 625 87 608T69 566Q69 541 86 524T129 507Q154 507 171 524T188 566Q188 591 171 608T129 625Z" />
<glyph unicode="&#xb1;" horiz-adv-x="481" d="M40 105H442V60H40V105ZM218 179V581H263V179H218ZM40 402H442V357H40V402Z" />
<glyph unicode="&#xb2;" horiz-adv-x="375" d="M51 595L39 670Q59 690 90 702T153 714Q195 714 228 699T282 656T302 592Q302 549 282 513T232 446T170 392T113 350H251Q280 350 295 362T329 406H335L304 308H30V315Q59 342 96 373T167 440T224 513T247 589Q247
637 221 663T153 689Q114 688 86 664T58 595H51Z" />
<glyph unicode="&#xb3;" horiz-adv-x="310" d="M135 712Q188 713 223 688T258 621Q258 595 239 573T192 539T140 533Q170 537 200 526T251 493T272 439Q272 395 254 362T202 309T125 282T30 286L31 293Q84 292 126 307T194 356T219 437Q219 469 203 487T158 514T89
523L90 529Q137 529 172 554T206 623Q205 653 186 670T135 688Q97 688 77 672T58 613H51L40 675Q54 692 77 702T135 712Z" />
<glyph unicode="&#xb4;" horiz-adv-x="439" d="M201 753Q222 776 243 798T285 842T328 884Q339 872 350 859T369 831Q342 816 315 801T262 773T208 746L201 753Z" />
<glyph unicode="&#xb5;" horiz-adv-x="878" d="M698 614L707 549L473 88Q473 88 466 71T450 31T438 -14H428L414 49L698 614ZM112 67V0H8V10Q8 10 15 10T23 10Q49 10 68 25T91 67H112ZM142 52Q141 37 149 24T179 9H193V0H136V52H142ZM169 614H179L199 555L137
0H82L169 614ZM179 614L451 91L428 -14L160 504L179 614ZM707 614L797 0H721L656 503L698 614H707ZM767 67H787Q791 40 811 25T856 10Q856 10 863 10T871 10V0H767V67ZM714 52H721V0H663V9H678Q701 10 708 24T714 52Z" />
<glyph unicode="&#xb6;" horiz-adv-x="520" d="M503 743L510 737Q502 719 489 704T455 680T405 670H279V0Q279 -38 275 -76T252 -145T193 -199L186 -190Q214 -161 227 -136T245 -80T249 0L246 333Q191 333 147 355T76 419T50 517Q51 574 77 615T147 678T246 700H407Q418
700 432 701T465 710T503 743ZM392 687V147Q392 109 388 82T374 33T344 -13L335 -5Q350 20 355 41T361 87T362 145V687H392Z" />
<glyph unicode="&#xb7;" horiz-adv-x="170" d="M85 305Q66 305 53 318T40 350Q40 369 53 382T85 395Q104 395 117 382T130 350Q130 331 117 318T85 305Z" />
<glyph unicode="&#xb8;" horiz-adv-x="600" d="M296 1H323L282 -48Q295 -43 312 -42T346 -46T374 -66T387 -106Q388 -137 367 -157T313 -183T246 -179L247 -169Q268 -169 289 -163T324 -143T337 -105Q336 -84 323 -75T290 -65T253 -72Q253 -72 251 -67T248 -62L296 1Z" />
<glyph unicode="&#xb9;" horiz-adv-x="211" d="M191 308V315H177Q162 315 152 325T141 350V714H134Q124 702 113 695T90 683T66 676T40 671V665H65Q80 665 88 657T96 632V351Q96 336 85 326T59 315H45V308H191Z" />
<glyph unicode="&#xba;" horiz-adv-x="412" d="M206 714Q255 714 295 691T359 629T383 542Q383 494 359 455T295 393T206 370Q158 370 118 393T54 455T30 542Q30 590 54 629T118 691T206 714ZM206 391Q259 391 293 434T328 542Q328 607 294 650T206 693Q171 693
144 673T101 619T85 542Q85 499 100 465T143 411T206 391Z" />
<glyph unicode="&#xbb;" horiz-adv-x="453" d="M414 292L239 490L231 485L349 292L230 95L239 90L414 292ZM244 292L69 490L61 485L179 292L60 95L69 90L244 292Z" />
<glyph unicode="&#xbc;" horiz-adv-x="693" d="M191 308V315H177Q162 315 152 325T141 350V714H134Q124 702 113 695T90 683T66 676T40 671V665H65Q80 665 88 657T96 632V351Q96 336 85 326T59 315H45V308H191ZM80 2L105 -14L582 697L558 714L80 2ZM553 339L591
406H597V1H553V339ZM590 406L597 379L425 165H626Q645 165 650 168T662 178H669L655 131H371V138L590 406ZM597 43Q597 28 608 18T634 7H641V0H509V7H516Q531 7 542 17T553 43H597Z" />
<glyph unicode="&#xbd;" horiz-adv-x="805" d="M211 308V315H197Q182 315 172 325T161 350V714H154Q144 702 133 695T110 683T86 676T60 671V665H85Q100 665 108 657T116 632V351Q116 336 105 326T79 315H65V308H211ZM99 2L124 -14L601 697L577 714L99 2ZM481
287L469 362Q489 382 520 394T583 406Q625 406 658 391T712 348T732 284Q732 241 712 205T662 138T600 84T543 42H681Q710 42 725 54T759 98H765L734 0H460V7Q489 34 526 65T597 132T654 205T677 281Q677 329 651 355T583 381Q544 380 516 356T488 287H481Z" />
<glyph unicode="&#xbe;" horiz-adv-x="713" d="M135 712Q188 713 223 688T258 621Q258 595 239 573T192 539T140 533Q170 537 200 526T251 493T272 439Q272 395 254 362T202 309T125 282T30 286L31 293Q84 292 126 307T194 356T219 437Q219 469 203 487T158 514T89
523L90 529Q137 529 172 554T206 623Q205 653 186 670T135 688Q97 688 77 672T58 613H51L40 675Q54 692 77 702T135 712ZM143 2L168 -14L645 697L621 714L143 2ZM578 339L616 406H622V1H578V339ZM615 406L622 379L450 165H651Q670 165 675 168T687 178H694L680
131H396V138L615 406ZM622 43Q622 28 633 18T659 7H666V0H534V7H541Q556 7 567 17T578 43H622Z" />
<glyph unicode="&#xbf;" horiz-adv-x="433" d="M393 75Q371 33 333 10T246 -14Q155 -14 103 31T50 156Q50 196 65 227T104 285T153 334T199 381T227 433Q232 449 234 464T233 494T217 525L223 530Q249 506 258 482T268 434Q268 406 254 381T218 332T176 281T140
225T125 156Q125 90 157 53T246 16Q305 16 340 57T373 170H383L393 75ZM233 704Q252 704 265 691T278 659Q278 640 265 627T233 614Q214 614 201 627T188 659Q188 678 201 691T233 704Z" />
<glyph unicode="&#xc0;" horiz-adv-x="712" d="M359 714L655 6H570L339 619L359 714ZM144 73Q137 53 142 39T158 18T182 10H191V0H-10V10Q-10 10 -6 10T-1 10Q22 10 46 24T87 73H144ZM359 714L368 644L117 3H57L313 611Q313 611 318 623T331 654T344 689T350 714H359ZM500
273V243H187V273H500ZM545 73H627Q642 39 667 25T715 10Q715 10 719 10T723 10V0H498V10H507Q526 10 541 26T545 73ZM364 771L357 764Q330 777 303 790T250 819T196 849Q204 865 214 878T237 902Q258 882 279 861T321 817T364 771Z" />
<glyph unicode="&#xc1;" horiz-adv-x="712" d="M359 714L655 6H570L339 619L359 714ZM144 73Q137 53 142 39T158 18T182 10H191V0H-10V10Q-10 10 -6 10T-1 10Q22 10 46 24T87 73H144ZM359 714L368 644L117 3H57L313 611Q313 611 318 623T331 654T344 689T350 714H359ZM500
273V243H187V273H500ZM545 73H627Q642 39 667 25T715 10Q715 10 719 10T723 10V0H498V10H507Q526 10 541 26T545 73ZM350 771Q371 794 392 816T434 860T477 902Q488 890 499 877T518 849Q491 834 464 819T411 791T357 764L350 771Z" />
<glyph unicode="&#xc2;" horiz-adv-x="712" d="M359 714L655 6H570L339 619L359 714ZM144 73Q137 53 142 39T158 18T182 10H191V0H-10V10Q-10 10 -6 10T-1 10Q22 10 46 24T87 73H144ZM359 714L368 644L117 3H57L313 611Q313 611 318 623T331 654T344 689T350 714H359ZM500
273V243H187V273H500ZM545 73H627Q642 39 667 25T715 10Q715 10 719 10T723 10V0H498V10H507Q526 10 541 26T545 73ZM246 771L252 763L356 829L470 763L476 771L362 890H352L246 771Z" />
<glyph unicode="&#xc3;" horiz-adv-x="712" d="M359 714L655 6H570L339 619L359 714ZM144 73Q137 53 142 39T158 18T182 10H191V0H-10V10Q-10 10 -6 10T-1 10Q22 10 46 24T87 73H144ZM359 714L368 644L117 3H57L313 611Q313 611 318 623T331 654T344 689T350 714H359ZM500
273V243H187V273H500ZM545 73H627Q642 39 667 25T715 10Q715 10 719 10T723 10V0H498V10H507Q526 10 541 26T545 73ZM242 767H252Q258 781 265 790T283 803T306 808Q323 808 342 797T384 775T427 764Q440 764 451 769T470 785T484 810T492 843H482Q478 832 470
824T452 813T427 809Q410 809 391 820T351 841T306 852Q294 852 284 846T265 829T251 803T242 767Z" />
<glyph unicode="&#xc4;" horiz-adv-x="712" d="M359 714L655 6H570L339 619L359 714ZM144 73Q137 53 142 39T158 18T182 10H191V0H-10V10Q-10 10 -6 10T-1 10Q22 10 46 24T87 73H144ZM359 714L368 644L117 3H57L313 611Q313 611 318 623T331 654T344 689T350 714H359ZM500
273V243H187V273H500ZM545 73H627Q642 39 667 25T715 10Q715 10 719 10T723 10V0H498V10H507Q526 10 541 26T545 73ZM262 764Q246 764 235 775T223 803Q223 820 234 831T262 842Q279 842 290 831T301 803Q301 787 290 776T262 764ZM451 764Q435 764 424 775T412
803Q412 820 423 831T451 842Q467 842 478 831T490 803Q490 787 479 776T451 764Z" />
<glyph unicode="&#xc5;" horiz-adv-x="712" d="M359 714L655 6H570L339 619L359 714ZM144 73Q137 53 142 39T158 18T182 10H191V0H-10V10Q-10 10 -6 10T-1 10Q22 10 46 24T87 73H144ZM359 714L368 644L117 3H57L313 611Q313 611 318 623T331 654T344 689T350 714H359ZM500
273V243H187V273H500ZM545 73H627Q642 39 667 25T715 10Q715 10 719 10T723 10V0H498V10H507Q526 10 541 26T545 73ZM356 837Q392 837 416 819T441 769Q441 740 417 721T356 701Q319 701 295 720T271 769Q271 799 295 818T356 837ZM356 822Q337 822 324 809T311
769Q311 744 324 731T356 717Q375 717 387 730T400 769Q400 795 388 808T356 822Z" />
<glyph unicode="&#xc6;" horiz-adv-x="902" d="M153 67Q145 53 145 40T155 19T179 10H189V0H-10V10Q-10 10 -7 10T-3 10Q22 10 48 29T89 71L153 67ZM531 700V0H466V654L531 700ZM468 58V0H406L407 10Q407 10 411 10T416 10Q436 10 450 24T466 58H468ZM801 31V0H528V31H801ZM758
350V320H293L298 350H758ZM800 700V669H491L488 635L115 3H46L463 655Q469 669 463 679T442 690H438V700H800ZM858 139L802 0H663L693 31Q753 31 790 61T848 139H858ZM758 322V256H748V271Q748 291 734 305T700 320V322H758ZM758 414V348H700V350Q720 351 734 365T748
400V414H758ZM800 672V605H790L791 620Q793 640 778 654T742 669V672H800ZM800 718V689L679 700Q701 700 725 703T770 710T800 718Z" />
<glyph unicode="&#xc7;" horiz-adv-x="760" d="M710 292L698 135Q672 92 633 59T540 6T417 -14Q313 -13 232 32T106 158T60 351Q60 460 105 541T231 668T423 714Q497 714 556 695T660 646L680 505H671Q649 593 581 638T423 684Q335 684 271 643T171 527T135 352Q135
252 170 177T269 60T417 16Q488 16 548 42T650 129T702 292H710ZM408 248H435L394 199Q407 204 424 205T458 201T486 181T499 141Q500 110 479 90T425 64T358 68L359 78Q380 78 401 84T436 104T449 142Q448 163 435 172T402 182T365 175Q365 175 363 180T360 185L408
248Z" />
<glyph unicode="&#xc8;" horiz-adv-x="577" d="M202 700V0H137V700H202ZM472 31V0H199V31H472ZM429 360V330H199V360H429ZM472 700V669H199V700H472ZM533 162L475 0H309L345 31Q398 31 431 47T486 94T523 162H533ZM429 332V266H419V281Q419 301 405 315T371 330V332H429ZM429
424V358H371V360Q391 361 405 375T419 410V424H429ZM472 672V592H462V610Q462 634 445 651T403 670V672H472ZM472 718V689L350 700Q372 700 396 703T442 710T472 718ZM140 73V0H60V10Q60 10 66 10T73 10Q99 10 117 28T137 73H140ZM140 627H137Q137 653 118 671T73
690Q73 690 67 690T61 690L60 700H140V627ZM306 771L299 764Q272 777 245 790T192 819T138 849Q146 865 156 878T179 902Q200 882 221 861T263 817T306 771Z" />
<glyph unicode="&#xc9;" horiz-adv-x="577" d="M202 700V0H137V700H202ZM472 31V0H199V31H472ZM429 360V330H199V360H429ZM472 700V669H199V700H472ZM533 162L475 0H309L345 31Q398 31 431 47T486 94T523 162H533ZM429 332V266H419V281Q419 301 405 315T371 330V332H429ZM429
424V358H371V360Q391 361 405 375T419 410V424H429ZM472 672V592H462V610Q462 634 445 651T403 670V672H472ZM472 718V689L350 700Q372 700 396 703T442 710T472 718ZM140 73V0H60V10Q60 10 66 10T73 10Q99 10 117 28T137 73H140ZM140 627H137Q137 653 118 671T73
690Q73 690 67 690T61 690L60 700H140V627ZM292 771Q313 794 334 816T376 860T419 902Q430 890 441 877T460 849Q433 834 406 819T353 791T299 764L292 771Z" />
<glyph unicode="&#xca;" horiz-adv-x="577" d="M202 700V0H137V700H202ZM472 31V0H199V31H472ZM429 360V330H199V360H429ZM472 700V669H199V700H472ZM533 162L475 0H309L345 31Q398 31 431 47T486 94T523 162H533ZM429 332V266H419V281Q419 301 405 315T371 330V332H429ZM429
424V358H371V360Q391 361 405 375T419 410V424H429ZM472 672V592H462V610Q462 634 445 651T403 670V672H472ZM472 718V689L350 700Q372 700 396 703T442 710T472 718ZM140 73V0H60V10Q60 10 66 10T73 10Q99 10 117 28T137 73H140ZM140 627H137Q137 653 118 671T73
690Q73 690 67 690T61 690L60 700H140V627ZM187 771L193 763L297 829L411 763L417 771L303 890H293L187 771Z" />
<glyph unicode="&#xcb;" horiz-adv-x="577" d="M202 700V0H137V700H202ZM472 31V0H199V31H472ZM429 360V330H199V360H429ZM472 700V669H199V700H472ZM533 162L475 0H309L345 31Q398 31 431 47T486 94T523 162H533ZM429 332V266H419V281Q419 301 405 315T371 330V332H429ZM429
424V358H371V360Q391 361 405 375T419 410V424H429ZM472 672V592H462V610Q462 634 445 651T403 670V672H472ZM472 718V689L350 700Q372 700 396 703T442 710T472 718ZM140 73V0H60V10Q60 10 66 10T73 10Q99 10 117 28T137 73H140ZM140 627H137Q137 653 118 671T73
690Q73 690 67 690T61 690L60 700H140V627ZM204 764Q188 764 177 775T165 803Q165 820 176 831T204 842Q221 842 232 831T243 803Q243 787 232 776T204 764ZM393 764Q377 764 366 775T354 803Q354 820 365 831T393 842Q409 842 420 831T432 803Q432 787 421 776T393
764Z" />
<glyph unicode="&#xcc;" horiz-adv-x="338" d="M202 700V0H137V700H202ZM140 73V0H60V10Q60 10 66 10T73 10Q99 10 117 28T137 73H140ZM140 627H137Q136 653 118 671T73 690Q73 690 67 690T60 690V700H140V627ZM199 73H202Q203 47 221 29T266 10Q266 10 272 10T279
10V0H199V73ZM199 627V700H279V690Q278 690 272 690T266 690Q240 690 222 672T202 627H199ZM176 771L169 764Q143 777 116 790T62 819T8 849Q16 865 27 878T49 902Q71 882 92 861T134 817T176 771Z" />
<glyph unicode="&#xcd;" horiz-adv-x="338" d="M202 700V0H137V700H202ZM140 73V0H60V10Q60 10 66 10T73 10Q99 10 117 28T137 73H140ZM140 627H137Q136 653 118 671T73 690Q73 690 67 690T60 690V700H140V627ZM199 73H202Q203 47 221 29T266 10Q266 10 272 10T279
10V0H199V73ZM199 627V700H279V690Q278 690 272 690T266 690Q240 690 222 672T202 627H199ZM419 771Q440 794 461 816T503 860T546 902Q557 890 568 877T587 849Q560 834 533 819T480 791T426 764L419 771Z" />
<glyph unicode="&#xce;" horiz-adv-x="338" d="M202 700V0H137V700H202ZM140 73V0H60V10Q60 10 66 10T73 10Q99 10 117 28T137 73H140ZM140 627H137Q136 653 118 671T73 690Q73 690 67 690T60 690V700H140V627ZM199 73H202Q203 47 221 29T266 10Q266 10 272 10T279
10V0H199V73ZM199 627V700H279V690Q278 690 272 690T266 690Q240 690 222 672T202 627H199ZM314 771L320 763L424 829L538 763L544 771L430 890H420L314 771Z" />
<glyph unicode="&#xcf;" horiz-adv-x="338" d="M202 700V0H137V700H202ZM140 73V0H60V10Q60 10 66 10T73 10Q99 10 117 28T137 73H140ZM140 627H137Q136 653 118 671T73 690Q73 690 67 690T60 690V700H140V627ZM199 73H202Q203 47 221 29T266 10Q266 10 272 10T279
10V0H199V73ZM199 627V700H279V690Q278 690 272 690T266 690Q240 690 222 672T202 627H199ZM331 764Q315 764 304 775T292 803Q292 820 303 831T331 842Q348 842 359 831T370 803Q370 787 359 776T331 764ZM520 764Q504 764 493 775T481 803Q481 820 492 831T520
842Q536 842 547 831T559 803Q559 787 548 776T520 764Z" />
<glyph unicode="&#xd0;" horiz-adv-x="807" d="M60 365H370V335H60V365ZM403 700Q510 700 590 657T714 534T758 350Q758 245 714 167T590 44T403 0H190L189 30Q189 30 210 30T264 30T328 30T381 30T403 30Q489 30 553 70T652 182T688 350Q688 446 653 518T553
630T403 670Q403 670 381 670T325 670T258 670T202 670T179 670V700H403ZM207 700V0H142V700H207ZM145 73V0H65V10Q65 10 71 10T78 10Q104 10 122 28T142 73H145ZM145 627H142Q141 653 123 671T78 690Q78 690 72 690T65 690V700H145V627Z" />
<glyph unicode="&#xd1;" horiz-adv-x="841" d="M126 715L707 95L716 -14L135 605L126 715ZM128 71V0H45V10Q45 10 54 10T64 10Q89 10 107 28T125 71H128ZM171 71Q171 46 189 28T232 10Q233 10 242 10T251 10V0H168V71H171ZM126 715L170 659L171 0H125V590Q125
641 121 678T116 715H126ZM716 700V114Q716 82 718 53T722 5T725 -14H716L671 39V700H716ZM796 700V690Q796 690 787 690T778 690Q753 690 735 673T716 629H713V700H796ZM590 700H673V629H671Q670 655 653 672T609 690Q609 690 600 690T590 690V700ZM311 767H321Q327
781 334 790T352 803T375 808Q392 808 411 797T453 775T496 764Q509 764 520 769T539 785T553 810T561 843H551Q547 832 539 824T521 813T496 809Q479 809 460 820T420 841T375 852Q363 852 353 846T334 829T320 803T311 767Z" />
<glyph unicode="&#xd2;" horiz-adv-x="838" d="M429 714Q536 714 617 669T743 541T789 350Q789 241 744 159T617 32T429 -14Q323 -14 242 31T116 159T70 350Q70 459 115 541T242 668T429 714ZM429 16Q514 16 577 58T676 175T712 350Q712 450 677 525T578 642T429
684Q345 684 282 642T183 525T147 350Q147 250 182 175T281 58T429 16ZM436 771L429 764Q402 777 376 790T322 819T268 849Q276 865 286 878T309 902Q330 882 351 861T394 817T436 771Z" />
<glyph unicode="&#xd3;" horiz-adv-x="838" d="M429 714Q536 714 617 669T743 541T789 350Q789 241 744 159T617 32T429 -14Q323 -14 242 31T116 159T70 350Q70 459 115 541T242 668T429 714ZM429 16Q514 16 577 58T676 175T712 350Q712 450 677 525T578 642T429
684Q345 684 282 642T183 525T147 350Q147 250 182 175T281 58T429 16ZM422 771Q443 794 464 816T506 860T549 902Q560 890 571 877T590 849Q563 834 536 819T483 791T429 764L422 771Z" />
<glyph unicode="&#xd4;" horiz-adv-x="838" d="M429 714Q536 714 617 669T743 541T789 350Q789 241 744 159T617 32T429 -14Q323 -14 242 31T116 159T70 350Q70 459 115 541T242 668T429 714ZM429 16Q514 16 577 58T676 175T712 350Q712 450 677 525T578 642T429
684Q345 684 282 642T183 525T147 350Q147 250 182 175T281 58T429 16ZM318 771L324 763L428 829L542 763L548 771L434 890H424L318 771Z" />
<glyph unicode="&#xd5;" horiz-adv-x="838" d="M429 714Q536 714 617 669T743 541T789 350Q789 241 744 159T617 32T429 -14Q323 -14 242 31T116 159T70 350Q70 459 115 541T242 668T429 714ZM429 16Q514 16 577 58T676 175T712 350Q712 450 677 525T578 642T429
684Q345 684 282 642T183 525T147 350Q147 250 182 175T281 58T429 16ZM314 767H324Q330 781 337 790T355 803T378 808Q395 808 414 797T456 775T499 764Q512 764 523 769T542 785T556 810T564 843H554Q550 832 542 824T524 813T499 809Q482 809 463 820T423 841T378
852Q366 852 356 846T337 829T323 803T314 767Z" />
<glyph unicode="&#xd6;" horiz-adv-x="838" d="M429 714Q536 714 617 669T743 541T789 350Q789 241 744 159T617 32T429 -14Q323 -14 242 31T116 159T70 350Q70 459 115 541T242 668T429 714ZM429 16Q514 16 577 58T676 175T712 350Q712 450 677 525T578 642T429
684Q345 684 282 642T183 525T147 350Q147 250 182 175T281 58T429 16ZM334 764Q318 764 307 775T295 803Q295 820 306 831T334 842Q351 842 362 831T373 803Q373 787 362 776T334 764ZM523 764Q507 764 496 775T484 803Q484 820 495 831T523 842Q539 842 550 831T562
803Q562 787 551 776T523 764Z" />
<glyph unicode="&#xd7;" horiz-adv-x="415" d="M82 468L366 184L334 152L50 436L82 468ZM366 436L82 152L50 184L334 468L366 436Z" />
<glyph unicode="&#xd8;" horiz-adv-x="828" d="M424 714Q531 714 610 669T734 541T779 350Q779 241 735 159T611 32T424 -14Q318 -14 239 31T115 159T70 350Q70 459 114 541T238 668T424 714ZM424 16Q509 16 572 58T671 175T707 350Q707 450 672 525T573 642T424
684Q340 684 277 642T178 525T142 350Q142 250 177 175T276 58T424 16ZM709 722L735 700L133 -23L108 -1L709 722Z" />
<glyph unicode="&#xd9;" horiz-adv-x="785" d="M184 700V260Q184 188 210 133T285 48T396 17Q463 17 513 46T591 126T619 247V700H666V247Q666 169 633 111T538 19T396 -14Q313 -14 251 18T154 109T119 246V700H184ZM122 700V640H119Q119 662 104 676T66 690Q66
690 58 690T50 690V700H122ZM253 700V690Q253 690 245 690T237 690Q215 690 200 676T184 640H182V700H253ZM622 700V640H619Q619 662 604 676T566 690Q566 690 558 690T550 690V700H622ZM735 700V690Q735 690 727 690T719 690Q697 690 682 676T666 640H664V700H735ZM409
771L402 764Q375 777 348 790T295 819T241 849Q249 865 259 878T282 902Q303 882 324 861T366 817T409 771Z" />
<glyph unicode="&#xda;" horiz-adv-x="785" d="M184 700V260Q184 188 210 133T285 48T396 17Q463 17 513 46T591 126T619 247V700H666V247Q666 169 633 111T538 19T396 -14Q313 -14 251 18T154 109T119 246V700H184ZM122 700V640H119Q119 662 104 676T66 690Q66
690 58 690T50 690V700H122ZM253 700V690Q253 690 245 690T237 690Q215 690 200 676T184 640H182V700H253ZM622 700V640H619Q619 662 604 676T566 690Q566 690 558 690T550 690V700H622ZM735 700V690Q735 690 727 690T719 690Q697 690 682 676T666 640H664V700H735ZM395
771Q416 794 437 816T479 860T522 902Q533 890 544 877T563 849Q536 834 509 819T456 791T402 764L395 771Z" />
<glyph unicode="&#xdb;" horiz-adv-x="785" d="M184 700V260Q184 188 210 133T285 48T396 17Q463 17 513 46T591 126T619 247V700H666V247Q666 169 633 111T538 19T396 -14Q313 -14 251 18T154 109T119 246V700H184ZM122 700V640H119Q119 662 104 676T66 690Q66
690 58 690T50 690V700H122ZM253 700V690Q253 690 245 690T237 690Q215 690 200 676T184 640H182V700H253ZM622 700V640H619Q619 662 604 676T566 690Q566 690 558 690T550 690V700H622ZM735 700V690Q735 690 727 690T719 690Q697 690 682 676T666 640H664V700H735ZM291
771L297 763L401 829L515 763L521 771L407 890H397L291 771Z" />
<glyph unicode="&#xdc;" horiz-adv-x="785" d="M184 700V260Q184 188 210 133T285 48T396 17Q463 17 513 46T591 126T619 247V700H666V247Q666 169 633 111T538 19T396 -14Q313 -14 251 18T154 109T119 246V700H184ZM122 700V640H119Q119 662 104 676T66 690Q66
690 58 690T50 690V700H122ZM253 700V690Q253 690 245 690T237 690Q215 690 200 676T184 640H182V700H253ZM622 700V640H619Q619 662 604 676T566 690Q566 690 558 690T550 690V700H622ZM735 700V690Q735 690 727 690T719 690Q697 690 682 676T666 640H664V700H735ZM307
764Q291 764 280 775T268 803Q268 820 279 831T307 842Q324 842 335 831T346 803Q346 787 335 776T307 764ZM496 764Q480 764 469 775T457 803Q457 820 468 831T496 842Q512 842 523 831T535 803Q535 787 524 776T496 764Z" />
<glyph unicode="&#xdd;" horiz-adv-x="661" d="M150 699L346 334L303 299L64 699H150ZM360 322V0H295V322H360ZM538 699H599L353 301L317 312L538 699ZM497 628Q506 642 502 656T487 680T462 690Q462 690 456 690T450 690V700H672V690H658Q627 690 600 672T557
631L497 628ZM188 628L104 631Q90 654 63 672T4 690H-10V700H236V690Q236 690 230 690T223 690Q201 690 190 670T188 628ZM297 73V0H218V10Q218 10 224 10T231 10Q257 10 275 28T295 73H297ZM357 73H360Q360 47 379 29T424 10Q424 10 430 10T436 10V0H357V73ZM333
771Q354 794 375 816T417 860T460 902Q471 890 482 877T501 849Q474 834 447 819T394 791T340 764L333 771Z" />
<glyph unicode="&#xde;" horiz-adv-x="554" d="M185 700V0H120V700H185ZM122 73V0H43V10Q43 10 49 10T56 10Q82 10 100 28T120 73H122ZM122 627H120Q119 653 101 671T56 690Q55 690 49 690T43 690V700H122V627ZM182 73H185Q185 47 204 29T249 10Q249 10 255 10T261
10V0H182V73ZM182 627V700H261V690Q261 690 255 690T249 690Q223 690 204 672T185 627H182ZM172 548H304Q370 548 415 525T482 458T505 355Q505 309 488 273T441 211T374 174T297 164T219 187V197Q219 197 236 195T279 193T335 204T389 238T428 305Q432 316 433
332T435 365Q433 434 399 476T300 518H182Q182 518 180 525T175 540T172 548Z" />
<glyph unicode="&#xdf;" horiz-adv-x="924" d="M234 614Q262 614 283 612T319 608T346 602T367 595L368 496H356Q356 537 328 560T241 584Q191 584 156 557T121 489Q121 476 124 463T136 436T160 410L362 254Q385 235 396 206T408 147Q409 103 385 66T321 8T231
-14Q202 -14 169 -9T106 6T58 33Q55 47 55 68T58 114T68 157H80Q76 112 93 80T143 32T220 16Q282 18 317 47T353 126Q353 150 345 169T317 206L117 360Q89 384 79 413T69 468Q69 509 91 542T150 594T234 614ZM366 605L367 587H296V605H366ZM696 614Q724 614 745
612T781 608T808 602T829 595L830 496H818Q818 537 790 560T703 584Q653 584 618 557T583 489Q583 476 586 463T598 436T622 410L824 254Q847 235 858 206T870 147Q871 103 847 66T783 8T693 -14Q664 -14 631 -9T568 6T520 33Q517 47 517 68T520 114T530 157H542Q538
112 555 80T605 32T682 16Q744 18 779 47T815 126Q815 150 807 169T779 206L579 360Q551 384 541 413T531 468Q531 509 553 542T612 594T696 614ZM828 605L829 587H758V605H828Z" />
<glyph unicode="&#xe0;" horiz-adv-x="663" d="M336 614L611 6H532L319 525L336 614ZM143 73Q132 43 146 27T178 10H186V0H-5V10Q-5 10 -1 10T3 10Q24 10 46 24T84 73H143ZM336 614L343 545L114 3H51L288 511Q288 511 293 523T306 552T320 587T327 614H336ZM454
233V203H189V233H454ZM505 73H581Q596 39 618 25T660 10Q660 10 664 10T668 10V0H463V10H471Q488 10 502 26T505 73ZM340 927L333 920Q306 933 279 946T226 975T172 1005Q180 1021 190 1034T213 1058Q234 1038 255 1017T297 973T340 927Z" />
<glyph unicode="&#xe1;" horiz-adv-x="663" d="M336 614L611 6H532L319 525L336 614ZM143 73Q132 43 146 27T178 10H186V0H-5V10Q-5 10 -1 10T3 10Q24 10 46 24T84 73H143ZM336 614L343 545L114 3H51L288 511Q288 511 293 523T306 552T320 587T327 614H336ZM454
233V203H189V233H454ZM505 73H581Q596 39 618 25T660 10Q660 10 664 10T668 10V0H463V10H471Q488 10 502 26T505 73ZM325 927Q346 950 367 972T409 1016T452 1058Q463 1046 474 1033T493 1005Q466 990 439 975T386 947T332 920L325 927Z" />
<glyph unicode="&#xe2;" horiz-adv-x="663" d="M336 614L611 6H532L319 525L336 614ZM143 73Q132 43 146 27T178 10H186V0H-5V10Q-5 10 -1 10T3 10Q24 10 46 24T84 73H143ZM336 614L343 545L114 3H51L288 511Q288 511 293 523T306 552T320 587T327 614H336ZM454
233V203H189V233H454ZM505 73H581Q596 39 618 25T660 10Q660 10 664 10T668 10V0H463V10H471Q488 10 502 26T505 73ZM221 927L227 919L331 985L445 919L451 927L337 1046H327L221 927Z" />
<glyph unicode="&#xe3;" horiz-adv-x="663" d="M336 614L611 6H532L319 525L336 614ZM143 73Q132 43 146 27T178 10H186V0H-5V10Q-5 10 -1 10T3 10Q24 10 46 24T84 73H143ZM336 614L343 545L114 3H51L288 511Q288 511 293 523T306 552T320 587T327 614H336ZM454
233V203H189V233H454ZM505 73H581Q596 39 618 25T660 10Q660 10 664 10T668 10V0H463V10H471Q488 10 502 26T505 73ZM218 923H228Q234 937 241 946T259 959T282 964Q299 964 318 953T360 931T403 920Q416 920 427 925T446 941T460 966T468 999H458Q454 988 446
980T428 969T403 965Q386 965 367 976T327 997T282 1008Q270 1008 260 1002T241 985T227 959T218 923Z" />
<glyph unicode="&#xe4;" horiz-adv-x="663" d="M336 614L611 6H532L319 525L336 614ZM143 73Q132 43 146 27T178 10H186V0H-5V10Q-5 10 -1 10T3 10Q24 10 46 24T84 73H143ZM336 614L343 545L114 3H51L288 511Q288 511 293 523T306 552T320 587T327 614H336ZM454
233V203H189V233H454ZM505 73H581Q596 39 618 25T660 10Q660 10 664 10T668 10V0H463V10H471Q488 10 502 26T505 73ZM238 920Q222 920 211 931T199 959Q199 976 210 987T238 998Q255 998 266 987T277 959Q277 943 266 932T238 920ZM427 920Q411 920 400 931T388
959Q388 976 399 987T427 998Q443 998 454 987T466 959Q466 943 455 932T427 920Z" />
<glyph unicode="&#xe5;" horiz-adv-x="663" d="M336 614L611 6H532L319 525L336 614ZM143 73Q132 43 146 27T178 10H186V0H-5V10Q-5 10 -1 10T3 10Q24 10 46 24T84 73H143ZM336 614L343 545L114 3H51L288 511Q288 511 293 523T306 552T320 587T327 614H336ZM454
233V203H189V233H454ZM505 73H581Q596 39 618 25T660 10Q660 10 664 10T668 10V0H463V10H471Q488 10 502 26T505 73ZM332 1070Q373 1070 399 1050T426 995Q426 962 400 941T332 920Q292 920 266 941T239 995Q239 1028 265 1049T332 1070ZM332 1053Q312 1053 298
1038T283 995Q283 967 297 952T332 937Q353 937 367 952T381 995Q381 1023 367 1038T332 1053Z" />
<glyph unicode="&#xe6;" horiz-adv-x="830" d="M143 58Q136 46 137 35T145 17T166 10H174V0H-5V10Q-5 10 -2 10T1 10Q23 10 45 25T81 62L143 58ZM498 600V0H433V561L498 600ZM435 50V0H382V10Q382 10 386 10T390 10Q407 10 419 21T433 50H435ZM750 30V0H495V30H750ZM715
302V271H264L268 302H715ZM750 600V568H454L452 541L109 3H41L431 562Q436 573 430 582T412 592H409V600H750ZM800 124L752 0H632L657 30Q710 30 741 56T789 124H800ZM715 273V219H705V229Q705 246 693 258T663 271V273H715ZM715 357V300H663V302Q681 302 693 314T705
344V357H715ZM750 570V513H740V526Q740 543 728 555T698 568V570H750ZM750 616V591L645 600Q674 600 706 605T750 616Z" />
<glyph unicode="&#xe7;" horiz-adv-x="705" d="M666 252L655 115Q629 75 587 46T492 2T380 -14Q279 -13 205 25T90 133T50 300Q50 398 90 468T204 576T380 614Q442 614 505 598T614 553L636 412H627Q605 504 539 544T379 584Q300 584 243 550T154 452T122 300Q122
214 153 151T243 53T380 17Q455 17 515 41T614 118T657 252H666ZM370 244H397L356 195Q369 200 386 201T420 197T448 177T461 137Q462 106 441 86T387 60T320 64L321 74Q342 74 363 80T398 100T411 138Q410 159 397 168T364 178T327 171Q327 171 325 176T322 181L370
244Z" />
<glyph unicode="&#xe8;" horiz-adv-x="546" d="M191 600V0H127V600H191ZM460 31L458 0H189V31H460ZM413 315V285H189V315H413ZM459 600V569H189V600H459ZM516 143L461 0H309L343 31Q393 31 423 45T473 85T506 143H516ZM413 287V230H402V243Q402 260 392 272T361
285V287H413ZM413 370V313H361V315Q382 315 392 327T402 357V370H413ZM459 572V503H448V518Q448 539 435 554T398 569V572H459ZM459 616V590L345 600Q376 600 411 605T459 616ZM129 64L142 0H55V10Q55 10 62 10T69 10Q94 10 110 26T127 64H129ZM129 537H127Q126
560 110 575T69 590Q69 590 62 590T55 590V600H142L129 537ZM304 927L297 920Q270 933 243 946T190 975T136 1005Q144 1021 154 1034T177 1058Q198 1038 219 1017T261 973T304 927Z" />
<glyph unicode="&#xe9;" horiz-adv-x="546" d="M191 600V0H127V600H191ZM460 31L458 0H189V31H460ZM413 315V285H189V315H413ZM459 600V569H189V600H459ZM516 143L461 0H309L343 31Q393 31 423 45T473 85T506 143H516ZM413 287V230H402V243Q402 260 392 272T361
285V287H413ZM413 370V313H361V315Q382 315 392 327T402 357V370H413ZM459 572V503H448V518Q448 539 435 554T398 569V572H459ZM459 616V590L345 600Q376 600 411 605T459 616ZM129 64L142 0H55V10Q55 10 62 10T69 10Q94 10 110 26T127 64H129ZM129 537H127Q126
560 110 575T69 590Q69 590 62 590T55 590V600H142L129 537ZM290 927Q311 950 332 972T374 1016T417 1058Q428 1046 439 1033T458 1005Q431 990 404 975T351 947T297 920L290 927Z" />
<glyph unicode="&#xea;" horiz-adv-x="546" d="M191 600V0H127V600H191ZM460 31L458 0H189V31H460ZM413 315V285H189V315H413ZM459 600V569H189V600H459ZM516 143L461 0H309L343 31Q393 31 423 45T473 85T506 143H516ZM413 287V230H402V243Q402 260 392 272T361
285V287H413ZM413 370V313H361V315Q382 315 392 327T402 357V370H413ZM459 572V503H448V518Q448 539 435 554T398 569V572H459ZM459 616V590L345 600Q376 600 411 605T459 616ZM129 64L142 0H55V10Q55 10 62 10T69 10Q94 10 110 26T127 64H129ZM129 537H127Q126
560 110 575T69 590Q69 590 62 590T55 590V600H142L129 537ZM186 927L192 919L296 985L410 919L416 927L302 1046H292L186 927Z" />
<glyph unicode="&#xeb;" horiz-adv-x="546" d="M191 600V0H127V600H191ZM460 31L458 0H189V31H460ZM413 315V285H189V315H413ZM459 600V569H189V600H459ZM516 143L461 0H309L343 31Q393 31 423 45T473 85T506 143H516ZM413 287V230H402V243Q402 260 392 272T361
285V287H413ZM413 370V313H361V315Q382 315 392 327T402 357V370H413ZM459 572V503H448V518Q448 539 435 554T398 569V572H459ZM459 616V590L345 600Q376 600 411 605T459 616ZM129 64L142 0H55V10Q55 10 62 10T69 10Q94 10 110 26T127 64H129ZM129 537H127Q126
560 110 575T69 590Q69 590 62 590T55 590V600H142L129 537ZM202 920Q186 920 175 931T163 959Q163 976 174 987T202 998Q219 998 230 987T241 959Q241 943 230 932T202 920ZM391 920Q375 920 364 931T352 959Q352 976 363 987T391 998Q407 998 418 987T430 959Q430
943 419 932T391 920Z" />
<glyph unicode="&#xec;" horiz-adv-x="306" d="M185 600V0H121V600H185ZM124 64V0H55V10Q55 10 60 10T66 10Q89 10 105 26T121 64H124ZM183 64H185Q186 42 202 26T241 10Q241 10 246 10T251 10L252 0H183V64ZM183 536V600H252L251 590Q251 590 246 590T241 590Q218
590 202 575T185 536H183ZM124 536H121Q121 559 105 574T66 590Q66 590 61 590T55 590V600H124V536ZM417 927L410 920Q383 933 356 946T303 975T249 1005Q257 1021 267 1034T290 1058Q311 1038 332 1017T374 973T417 927Z" />
<glyph unicode="&#xed;" horiz-adv-x="306" d="M185 600V0H121V600H185ZM124 64V0H55V10Q55 10 60 10T66 10Q89 10 105 26T121 64H124ZM183 64H185Q186 42 202 26T241 10Q241 10 246 10T251 10L252 0H183V64ZM183 536V600H252L251 590Q251 590 246 590T241 590Q218
590 202 575T185 536H183ZM124 536H121Q121 559 105 574T66 590Q66 590 61 590T55 590V600H124V536ZM403 927Q424 950 445 972T487 1016T530 1058Q541 1046 552 1033T571 1005Q544 990 517 975T464 947T410 920L403 927Z" />
<glyph unicode="&#xee;" horiz-adv-x="306" d="M185 600V0H121V600H185ZM124 64V0H55V10Q55 10 60 10T66 10Q89 10 105 26T121 64H124ZM183 64H185Q186 42 202 26T241 10Q241 10 246 10T251 10L252 0H183V64ZM183 536V600H252L251 590Q251 590 246 590T241 590Q218
590 202 575T185 536H183ZM124 536H121Q121 559 105 574T66 590Q66 590 61 590T55 590V600H124V536ZM298 927L304 919L408 985L522 919L528 927L414 1046H404L298 927Z" />
<glyph unicode="&#xef;" horiz-adv-x="306" d="M185 600V0H121V600H185ZM124 64V0H55V10Q55 10 60 10T66 10Q89 10 105 26T121 64H124ZM183 64H185Q186 42 202 26T241 10Q241 10 246 10T251 10L252 0H183V64ZM183 536V600H252L251 590Q251 590 246 590T241 590Q218
590 202 575T185 536H183ZM124 536H121Q121 559 105 574T66 590Q66 590 61 590T55 590V600H124V536ZM315 920Q299 920 288 931T276 959Q276 976 287 987T315 998Q332 998 343 987T354 959Q354 943 343 932T315 920ZM504 920Q488 920 477 931T465 959Q465 976 476
987T504 998Q520 998 531 987T543 959Q543 943 532 932T504 920Z" />
<glyph unicode="&#xf0;" horiz-adv-x="760" d="M389 600Q488 600 560 564T671 461T710 300Q710 207 671 140T560 37T389 0H176L174 30Q244 30 291 30T364 30T389 30Q505 30 571 102T638 300Q638 425 572 497T389 570Q389 570 363 570T287 570T164 570V600H389ZM190
600V0H125V600H190ZM127 65V0H55V10Q55 10 61 10T68 10Q92 10 108 26T125 65H127ZM127 535H125Q124 559 108 574T67 590Q67 590 61 590T55 590V600H127V535ZM62 315H347V285H62V315Z" />
<glyph unicode="&#xf1;" horiz-adv-x="779" d="M108 615L662 93L672 -14L118 511L108 615ZM110 62V0H35V10Q35 10 43 10T52 10Q75 10 91 25T107 62H110ZM152 62Q152 40 168 25T207 10Q207 10 215 10T224 10V0H149V62H152ZM108 615L151 559L152 0H107V490Q107 541
103 578T98 615H108ZM672 600V114Q672 82 674 53T678 5T681 -14H672L628 39V600H672ZM669 538V600H744V590Q744 590 736 590T727 590Q705 590 689 575T672 538H669ZM628 538Q627 560 611 575T572 590Q572 590 564 590T555 590V600H630V538H628ZM273 923H283Q289
937 296 946T314 959T337 964Q354 964 373 953T415 931T458 920Q471 920 482 925T501 941T515 966T523 999H513Q509 988 501 980T483 969T458 965Q441 965 422 976T382 997T337 1008Q325 1008 315 1002T296 985T282 959T273 923Z" />
<glyph unicode="&#xf2;" horiz-adv-x="774" d="M387 614Q457 614 518 592T626 527T699 428T725 300Q725 230 699 173T627 73T519 9T387 -14Q317 -14 256 8T149 73T76 172T50 300Q50 370 76 427T148 527T256 591T387 614ZM387 16Q461 16 521 52T616 152T651 300Q651
385 616 448T521 548T387 584Q314 584 254 548T159 449T124 300Q124 216 159 152T254 52T387 16ZM395 671L388 664Q361 677 334 690T281 719T227 749Q235 765 245 778T268 802Q289 782 310 761T352 717T395 671Z" />
<glyph unicode="&#xf3;" horiz-adv-x="774" d="M387 614Q457 614 518 592T626 527T699 428T725 300Q725 230 699 173T627 73T519 9T387 -14Q317 -14 256 8T149 73T76 172T50 300Q50 370 76 427T148 527T256 591T387 614ZM387 16Q461 16 521 52T616 152T651 300Q651
385 616 448T521 548T387 584Q314 584 254 548T159 449T124 300Q124 216 159 152T254 52T387 16ZM381 671Q402 694 423 716T465 760T508 802Q519 790 530 777T549 749Q522 734 495 719T442 691T388 664L381 671Z" />
<glyph unicode="&#xf4;" horiz-adv-x="774" d="M387 614Q457 614 518 592T626 527T699 428T725 300Q725 230 699 173T627 73T519 9T387 -14Q317 -14 256 8T149 73T76 172T50 300Q50 370 76 427T148 527T256 591T387 614ZM387 16Q461 16 521 52T616 152T651 300Q651
385 616 448T521 548T387 584Q314 584 254 548T159 449T124 300Q124 216 159 152T254 52T387 16ZM276 927L282 919L386 985L500 919L506 927L392 1046H382L276 927Z" />
<glyph unicode="&#xf5;" horiz-adv-x="774" d="M387 614Q457 614 518 592T626 527T699 428T725 300Q725 230 699 173T627 73T519 9T387 -14Q317 -14 256 8T149 73T76 172T50 300Q50 370 76 427T148 527T256 591T387 614ZM387 16Q461 16 521 52T616 152T651 300Q651
385 616 448T521 548T387 584Q314 584 254 548T159 449T124 300Q124 216 159 152T254 52T387 16ZM273 923H283Q289 937 296 946T314 959T337 964Q354 964 373 953T415 931T458 920Q471 920 482 925T501 941T515 966T523 999H513Q509 988 501 980T483 969T458 965Q441
965 422 976T382 997T337 1008Q325 1008 315 1002T296 985T282 959T273 923Z" />
<glyph unicode="&#xf6;" horiz-adv-x="774" d="M387 614Q457 614 518 592T626 527T699 428T725 300Q725 230 699 173T627 73T519 9T387 -14Q317 -14 256 8T149 73T76 172T50 300Q50 370 76 427T148 527T256 591T387 614ZM387 16Q461 16 521 52T616 152T651 300Q651
385 616 448T521 548T387 584Q314 584 254 548T159 449T124 300Q124 216 159 152T254 52T387 16ZM293 920Q277 920 266 931T254 959Q254 976 265 987T293 998Q310 998 321 987T332 959Q332 943 321 932T293 920ZM482 920Q466 920 455 931T443 959Q443 976 454 987T482
998Q498 998 509 987T521 959Q521 943 510 932T482 920Z" />
<glyph unicode="&#xf7;" horiz-adv-x="481" d="M40 332H442V287H40V332ZM241 117Q226 117 216 127T205 152Q205 167 215 177T241 187Q255 187 265 177T276 152Q276 138 266 128T241 117ZM241 433Q226 433 216 443T205 468Q205 483 215 493T241 503Q255 503 265
493T276 468Q276 454 266 444T241 433Z" />
<glyph unicode="&#xf8;" horiz-adv-x="774" d="M613 631L639 608L113 -23L88 -1L613 631ZM387 614Q457 614 518 592T626 527T699 428T725 300Q725 230 699 173T627 73T519 9T387 -14Q317 -14 256 8T149 73T76 172T50 300Q50 370 76 427T148 527T256 591T387 614ZM387
16Q461 16 521 52T616 152T651 300Q651 385 616 448T521 548T387 584Q314 584 254 548T159 449T124 300Q124 216 159 152T254 52T387 16Z" />
<glyph unicode="&#xf9;" horiz-adv-x="700" d="M167 600V222Q167 125 216 69T352 13Q447 13 501 66T556 211V600H602V211Q602 107 536 47T353 -14Q238 -14 171 46T103 210V600H167ZM105 600V547H103Q102 565 89 577T55 590Q55 590 48 590T40 590V600H105ZM230
600V590Q230 590 223 590T215 590Q196 590 182 578T167 547H165V600H230ZM558 600V547H556Q556 565 542 577T508 590Q508 590 501 590T493 590V600H558ZM665 600V590Q665 590 658 590T650 590Q631 590 617 578T602 547H600V600H665ZM358 927L351 920Q324 933 297
946T244 975T190 1005Q198 1021 208 1034T231 1058Q252 1038 273 1017T315 973T358 927Z" />
<glyph unicode="&#xfa;" horiz-adv-x="700" d="M167 600V222Q167 125 216 69T352 13Q447 13 501 66T556 211V600H602V211Q602 107 536 47T353 -14Q238 -14 171 46T103 210V600H167ZM105 600V547H103Q102 565 89 577T55 590Q55 590 48 590T40 590V600H105ZM230
600V590Q230 590 223 590T215 590Q196 590 182 578T167 547H165V600H230ZM558 600V547H556Q556 565 542 577T508 590Q508 590 501 590T493 590V600H558ZM665 600V590Q665 590 658 590T650 590Q631 590 617 578T602 547H600V600H665ZM344 671Q365 694 386 716T428
760T471 802Q482 790 493 777T512 749Q485 734 458 719T405 691T351 664L344 671Z" />
<glyph unicode="&#xfb;" horiz-adv-x="700" d="M167 600V222Q167 125 216 69T352 13Q447 13 501 66T556 211V600H602V211Q602 107 536 47T353 -14Q238 -14 171 46T103 210V600H167ZM105 600V547H103Q102 565 89 577T55 590Q55 590 48 590T40 590V600H105ZM230
600V590Q230 590 223 590T215 590Q196 590 182 578T167 547H165V600H230ZM558 600V547H556Q556 565 542 577T508 590Q508 590 501 590T493 590V600H558ZM665 600V590Q665 590 658 590T650 590Q631 590 617 578T602 547H600V600H665ZM239 927L245 919L349 985L463
919L469 927L355 1046H345L239 927Z" />
<glyph unicode="&#xfc;" horiz-adv-x="700" d="M167 600V222Q167 125 216 69T352 13Q447 13 501 66T556 211V600H602V211Q602 107 536 47T353 -14Q238 -14 171 46T103 210V600H167ZM105 600V547H103Q102 565 89 577T55 590Q55 590 48 590T40 590V600H105ZM230
600V590Q230 590 223 590T215 590Q196 590 182 578T167 547H165V600H230ZM558 600V547H556Q556 565 542 577T508 590Q508 590 501 590T493 590V600H558ZM665 600V590Q665 590 658 590T650 590Q631 590 617 578T602 547H600V600H665ZM256 920Q240 920 229 931T217
959Q217 976 228 987T256 998Q273 998 284 987T295 959Q295 943 284 932T256 920ZM445 920Q429 920 418 931T406 959Q406 976 417 987T445 998Q461 998 472 987T484 959Q484 943 473 932T445 920Z" />
<glyph unicode="&#xfd;" horiz-adv-x="640" d="M149 599L334 270L293 235L62 599H149ZM349 258V0H284V258H349ZM517 599H580L342 237L305 248L517 599ZM479 536Q490 556 480 573T448 590Q448 590 442 590T436 590V600H645V590H633Q605 590 581 575T542 539L479
536ZM184 537L99 540Q83 563 60 576T7 590H-5V600H227V590Q227 590 221 590T215 590Q193 590 184 573T184 537ZM287 64V0H214V10Q215 10 220 10T226 10Q250 10 266 26T284 64H287ZM346 64H349Q350 42 366 26T407 10Q407 10 413 10T419 10V0H346V64ZM327 927Q348
950 369 972T411 1016T454 1058Q465 1046 476 1033T495 1005Q468 990 441 975T388 947T334 920L327 927Z" />
<glyph unicode="&#xfe;" horiz-adv-x="527" d="M172 475H284Q349 475 395 455T467 396T492 304Q492 247 469 207T408 145T323 124T229 150V159Q229 159 244 156T282 153T331 162T381 194T417 260Q421 271 422 286T424 314Q424 376 386 410T280 445H182Q182 445
180 452T175 467T172 475ZM184 600V0H120V600H184ZM122 64L133 0H53L54 10Q54 10 60 10T66 10Q89 10 104 26T120 64H122ZM122 537H120Q119 560 104 575T66 590Q66 590 60 590T54 590L53 600H133L122 537ZM181 64H184Q184 42 199 26T237 10Q237 10 243 10T250 10V0H170L181
64ZM181 537L170 600H250V590Q250 590 244 590T237 590Q215 590 200 575T184 537H181Z" />
<glyph unicode="&#xff;" horiz-adv-x="640" d="M149 599L334 270L293 235L62 599H149ZM349 258V0H284V258H349ZM517 599H580L342 237L305 248L517 599ZM479 536Q490 556 480 573T448 590Q448 590 442 590T436 590V600H645V590H633Q605 590 581 575T542 539L479
536ZM184 537L99 540Q83 563 60 576T7 590H-5V600H227V590Q227 590 221 590T215 590Q193 590 184 573T184 537ZM287 64V0H214V10Q215 10 220 10T226 10Q250 10 266 26T284 64H287ZM346 64H349Q350 42 366 26T407 10Q407 10 413 10T419 10V0H346V64ZM239 920Q223
920 212 931T200 959Q200 976 211 987T239 998Q256 998 267 987T278 959Q278 943 267 932T239 920ZM428 920Q412 920 401 931T389 959Q389 976 400 987T428 998Q444 998 455 987T467 959Q467 943 456 932T428 920Z" />
<glyph unicode="&#x2013;" horiz-adv-x="500" d="M0 311H500V271H0V311Z" />
<glyph unicode="&#x2014;" horiz-adv-x="800" d="M0 311H800V271H0V311Z" />
<glyph unicode="&#x2018;" horiz-adv-x="193" d="M138 615Q132 600 116 595T82 597T55 625Q42 656 45 684T62 734T99 770T147 784L149 775Q117 765 107 746T101 707T114 677Q121 669 128 660T140 640T138 615Z" />
<glyph unicode="&#x2019;" horiz-adv-x="193" d="M56 757Q63 772 79 777T112 776T139 747Q152 716 149 688T132 638T95 602T47 588L45 597Q77 608 87 627T93 665T80 695Q74 703 66 712T54 732T56 757Z" />
<glyph unicode="&#x201a;" horiz-adv-x="193" d="M56 71Q63 86 79 91T112 90T139 61Q152 30 149 2T132 -48T95 -84T47 -98L45 -89Q77 -78 87 -59T93 -21T80 9Q74 17 66 26T54 46T56 71Z" />
<glyph unicode="&#x201c;" horiz-adv-x="333" d="M275 615Q269 600 253 595T219 597T192 625Q179 656 182 684T199 734T236 770T284 784L286 775Q254 765 244 746T238 707T251 677Q258 669 265 660T277 640T275 615ZM391 615Q385 600 369 595T335 597T308 625Q295
656 298 684T315 734T352 770T400 784L402 775Q370 765 360 746T354 707T367 677Q374 669 381 660T393 640T391 615Z" />
<glyph unicode="&#x201d;" horiz-adv-x="333" d="M196 757Q203 772 219 777T252 776T279 747Q292 716 289 688T272 638T235 602T187 588L185 597Q217 608 227 627T233 665T220 695Q214 703 206 712T194 732T196 757ZM56 757Q63 772 79 777T112 776T139 747Q152
716 149 688T132 638T95 602T47 588L45 597Q77 608 87 627T93 665T80 695Q74 703 66 712T54 732T56 757Z" />
<glyph unicode="&#x201e;" horiz-adv-x="333" d="M196 76Q203 91 219 96T252 95T279 66Q292 35 289 7T272 -43T235 -79T187 -93L185 -84Q217 -73 227 -54T233 -16T220 14Q214 22 206 31T194 51T196 76ZM56 76Q63 91 79 96T112 95T139 66Q152 35 149 7T132 -43T95
-79T47 -93L45 -84Q77 -73 87 -54T93 -16T80 14Q74 22 66 31T54 51T56 76Z" />
<glyph unicode="&#x2022;" horiz-adv-x="335" d="M181 237Q168 233 154 237Q133 244 120 250T99 264T86 285T72 319Q68 333 72 346Q80 368 85 381T99 401T120 415T154 428Q168 434 181 428Q203 421 216 415T236 402T250 381T263 346Q266 339 266 333T263 317Q256
296 250 284T237 263T216 250T181 237Z" />
<glyph unicode="&#x2039;" horiz-adv-x="283" d="M40 292L215 90L224 95L105 292L223 485L215 490L40 292Z" />
<glyph unicode="&#x203a;" horiz-adv-x="283" d="M244 292L69 490L61 485L179 292L60 95L69 90L244 292Z" />
</font>
</defs>
</svg>
